2 сезон

iTunes

MVO

1

2 сезон

iTunes

iTunes

1 сезон

RePack

30

Новинка

ВАЖНО

ИГРА 18+

pack

RePack

MK11
pack

Легкие деньги

RePack

jed

RePack

fifa19

RePack

RDR2

RePack

NEED FOR SPEED™ PAYBACK

4 сезон

9 сезон

Бесстыжие 9 сезон

Все сериалы

все сериалы на PB.wtf

RePack

FAR CRY 5

Anonymous, добрый день, мы не успеваем собрать деньги на оплату серверов за декабрь и январь, помогите нам пожалуйста в это трудное время. В качестве благодарности мы отключим Вам всю рекламу на сайте (укажите свой ник в строку Ваше имя)!

×
  
Magnet ссылка

Советник / The Counselor (Ридли Скотт / Ridley Scott) [2013, США, Великобритания, триллер, драма, криминал, HDRip-AVC,Профессиональный [Дубляж - Лицензия] pb.wtf

Советник через торрент pb.wtf

Раздают: 1 [ 0 KB/s ]
Размер: 1.45 GB | Добавлен: 6 лет 6 мес. назад | Торрент скачан:416 раз
Скачать  

31-01-2014 14:48 Советник Скачать торрент  


Советник / The Counselor

«Соблазн велик»

Год выпуска:2013
Страна:США, Великобритания
Жанр:триллер, драма, криминал
Продолжительность: 01:57:13
Перевод:Профессиональный [Дубляж - Лицензия]
Субтитры: Нет
Режиссер:Ридли Скотт / Ridley Scott
В ролях:Майкл Фассбендер (Counselor), Пенелопа Крус (Laura), Кэмерон Диаз (Malkina), Хавьер Бардем (Reiner), Брэд Питт (Westray), Бруно Ганц (Diamond Dealer), Рози Перес (Ruth), Тоби Кеббелл (Tony), Эмма Ригби (Tony's Girlfriend), Эдгар Рамирес (Priest), Сэм Спруэлл (Wireman), Рубен Бладес (Jefe)
  • Описание:
    Успешный адвокат, стоящий практически на вершине успеха и на пороге собственной свадьбы, из любопытства и, конечно, ради денег соглашается на предложение своего давнего знакомого, имеющего тесные связи с преступным миром, перевезти из Мексики в США партию кокаина стоимостью 20 млн. долл.

    Качество: HDRip-AVC/Автор рипа: Raven
    Формат: MKV
    Видео кодек: AVC
    Аудио кодек:AC3
    Видео: AVC, 1056x440 (2.40:1), 1318 kbps, 23,976 fps, 0,118 bpp
    Аудио: русский / AC3 / 5.1 / 48 kHz / 448 kbps / 16 bit ||

Код:

General
Unique ID                                : 225833976981118430759566616204088016487 (0xA9E60AB82CFFE52BA1958C0BF8E17E67)
Complete name                            : D:Sovetnik.2013..HDRip__Piratbit.net_by Raven .mkv
Format                                   : Matroska
Format version                           : Version 4 / Version 2
File size                                : 1.45 GiB
Duration                                 : 1h 57mn
Overall bit rate                         : 1 768 Kbps
Movie name                               : Piratbit.net_by Raven
Encoded date                             : UTC 2014-01-31 14:32:22
Writing application                      : mkvmerge v6.4.1 ('Omega Point') built on Sep 16 2013 22:05:10
Writing library                          : libebml v1.3.0 + libmatroska v1.4.1

Video
ID                                       : 1
Format                                   : AVC
Format/Info                              : Advanced Video Codec
Format profile                           : High@L3.1
Format settings, CABAC                   : Yes
Format settings, ReFrames                : 4 frames
Codec ID                                 : V_MPEG4/ISO/AVC
Duration                                 : 1h 57mn
Bit rate                                 : 1 318 Kbps
Width                                    : 1 056 pixels
Height                                   : 440 pixels
Display aspect ratio                     : 2.40:1
Frame rate                               : 23.976 fps
Color space                              : YUV
Chroma subsampling                       : 4:2:0
Bit depth                                : 8 bits
Scan type                                : Progressive
Bits/(Pixel*Frame)                       : 0.118
Stream size                              : 1.05 GiB (73%)
Title                                    : Piratbit.net_by Raven
Writing library                          : x264 core 125 r2208 d9d2288
Encoding settings                        : cabac=1 / ref=3 / deblock=1:-1:-1 / analyse=0x3:0x113 / me=hex / subme=7 / psy=1 / psy_rd=1.00:0.10 / mixed_ref=1 / me_range=16 / chroma_me=1 / trellis=1 / 8x8dct=1 / cqm=0 / deadzone=21,11 / fast_pskip=1 / chroma_qp_offset=-3 / threads=6 / lookahead_threads=1 / sliced_threads=0 / nr=0 / decimate=1 / interlaced=0 / bluray_compat=0 / constrained_intra=0 / bframes=3 / b_pyramid=2 / b_adapt=1 / b_bias=0 / direct=3 / weightb=1 / open_gop=0 / weightp=2 / keyint=250 / keyint_min=23 / scenecut=40 / intra_refresh=0 / rc_lookahead=40 / rc=2pass / mbtree=1 / bitrate=1318 / ratetol=1.0 / qcomp=0.60 / qpmin=0 / qpmax=69 / qpstep=4 / cplxblur=20.0 / qblur=0.5 / ip_ratio=1.40 / aq=1:1.00
Language                                 : English
Default                                  : Yes
Forced                                   : No

Audio
ID                                       : 2
Format                                   : AC-3
Format/Info                              : Audio Coding 3
Mode extension                           : CM (complete main)
Codec ID                                 : A_AC3
Duration                                 : 1h 57mn
Bit rate mode                            : Constant
Bit rate                                 : 448 Kbps
Channel(s)                               : 6 channels
Channel positions                        : Front: L C R, Side: L R, LFE
Sampling rate                            : 48.0 KHz
Bit depth                                : 16 bits
Compression mode                         : Lossy
Stream size                              : 376 MiB (25%)
Language                                 : Russian
Default                                  : Yes
Forced                                   : No


Скриншоты:
скриншот   скриншот   скриншот  

Трейлеры к фильмам [2014]

© Оформление by Raven
pb.wtf



Скачать Советник через торрент https://pic.kartinco.top/images/6/1bzeh.jpg Скачать фильм Советник через торрент бесплантно в хорошем качестве Описание:Успешный адвокат, стоящий практически на вершине успеха и на пороге собственной свадьбы, из любопытства и, конечно, ради денег ... 8.9 10 26
Торрент: Зарегистрирован [2014-07-20 01:00] · скачан: 416 раз
Статус: √ проверено
Размер: 1.45 GB
Как cкачать? Как скачать Советник через торрент | UTorrent

% Раздел Тема Автор DL S | L
Фильмы [HD 720p, 1080p] (Хороший звук DUB, MVO) [ 5.65 GB ] Советник / The Counselor [2013 BDRip 720p ] кэп Скачать
1 | 0
Фильмы [HD 720p, 1080p] (Хороший звук DUB, MVO) [ 12.49 GB ] Советник [Театральная версия] / The Counselor [Theatrical Cut] [2013 BDRip 1080p] Messa-fan Скачать
1 | 0
Фильмы (Blu-ray, BD-Remux, HDDVD) [ 23.78 GB ] Советник / The Counselor [Extended Cut] [2013 BDRemux 1080p от ExKinoRay] Ворон Скачать
1 | 0
Фильмы [HD 720p, 1080p] (Хороший звук DUB, MVO) [ 16.56 GB ] Советник / The Counselor [Extended Cut] [2013 BDRip 1080p] Dub + Dub Ukr + Sub Rus Ukr Eng+ Original Eng Assasinca Скачать
1 | 0
Фильмы 2013 [DVDrip, WEB-DLRip, HDrip] [ 1.46 GB ] Советник / The Counselor [2013 HDRip ] кэп Скачать
1 | 0
Фильмы (DVD фильмы) [ 6.21 GB ] Советник / The Counselor [2013 DVD9] R5 voovaz Скачать
1 | 0
Фильмы 2013 [DVDrip, WEB-DLRip, HDrip] [ 2.91 GB ] Советник / The Counselor [2013 BDRip-AVC ] vovan Скачать
1 | 0


Последний раз редактировалось: Ворон (2014-07-20 01:00), всего редактировалось 2 раз(а)

28-11-2019 20:33  

Отключить всю рекламу на сайте

31-01-2014 18:33 Советник Скачать торрент  

тяжелый фильм.... особо впечатлительным не "советую".pb.wtf



02-02-2014 20:28 Советник Скачать торрент  

моторчик весчь.))pb.wtf



03-02-2014 10:28 Советник Скачать торрент  

фильм мне не понравился.нет в нем изюминки.pb.wtf



04-02-2014 17:24 Советник Скачать торрент  

Фильм буквально ни о чем. Почти весь хронометраж построен на пустом трепе, тускло играющих, актеров.
Не рекомендуется к просмотру.pb.wtf



06-02-2014 08:27 Советник Скачать торрент  

Raven писал(а):

Советник / The Counselor (Ридли Скотт / Ridley Scott) [2013, США, Великобритания, триллер, драма, криминал, HDRip-AVC,Профессиональный [Дубляж - Лицензия]

Фильм не о чем. зря потраченное времяpb.wtf



    Дорогой пользователь! Огромная просьба, поблагодарите релизера, оцените раздачу и оставьте свои комментарий, если Вы скачали Советник через торрент бесплатно! Внесите свою лепту в развитие PiratBit!
    Комментировать посты могут только пользователи прошедшие не сложную регистрацию
    Показать сообщения:    

    Советник через торрент
    Скачать бесплатно Советник
    Советник скачать торрент
    Советник смотреть онлайн
    Cкачать фильм Советник бесплатно
    Советник скачать торрент в хорошем качестве
    Советник смотреть онлайн бесплатно в хорошем качестве


    Вы не можете начинать темы
    Вы не можете отвечать на сообщения
    Вы не можете редактировать свои сообщения
    Вы не можете удалять свои сообщения
    Вы не можете голосовать в опросах
    Вы не можете прикреплять файлы к сообщениям
    Вы можете скачивать файлы