Ссылка на приватное зеркало нашего сайта всего за 1$. Внимание количество ограничено!!!

2 сезон

iTunes

1 сезон

1

iTunes

iTunes

iTunes

1 сезон

RePack

30

ИГРА 18+

pack

ВАЖНО

!!Акция!!

Alien_RageХит недели

RePack

MK11
pack

Забери бонус

RePack

jed

!!Акция!!

Alien_Rage

RePack

fifa19

RePack

Assassins Creed: Odyssey

RePack

NEED FOR SPEED™ PAYBACK

4 сезон

9 сезон

Бесстыжие 9 сезон

Все сериалы

все сериалы на PB.wtf

RePack

FAR CRY 5
  

Шаолинь / Shaolin (Бенни Чан) [2011 г., Боевик, драма, BDRip 1080p, Профессиональный (многоголосый закадровый)[BBC Saint-Petersburg] pb.wtf

Шаолинь через торрент pb.wtf

Размер: 10.17 GB | Добавлен: 6 лет 8 мес. назад | Торрент скачан:90 раз
Скачать  

31-01-2014 15:18 Шаолинь Скачать торрент  

Шаолинь / Shaolin
Год выпуска: 2011
Страна: Гонконг / Китай
Жанр: Боевик, драма
Продолжительность: 02:11:05
Перевод: Профессиональный (многоголосый закадровый)[BBC Saint-Petersburg]
Субтитры: Английские

Режиссер: Бенни Чан
Продюссер: Бенни Чан, Хуаян Фу, Саньпин Хань
Сценарий: Алань Юйэнь, Чи Квонг Чунг, Цюйюй Ван

Бюджет: $29 000 000
Премьера в мире: 20 января 2011



В ролях: Энди Лау, Николас Тсе, Фань Бинбин, Джеки Чан, Джеки Ву, Ю Хин, Ксин Ксин Ксион

Описание: Шаолинь… Вряд ли найдется человек, который не слышал этого легендарного имени и не восхищался безупречной техникой его мастеров боевых искусств. Древняя обитель зачастую оказывалась в гуще сражений, меняя ход истории великой империи.
Вражда между китайскими военачальниками достигла своего предела. В безудержном стремлении завоевать соседние территории они погружают страну в пучину раздора. Молодой воин Сяо Че, одержав победу в поединке над одним из шаолиньских мастеров, начинает этим бахвалиться. Но самонадеянность к добру не ведет. В междоусобных распрях гибнет семья Сяо. Ему самому удается чудом спастись. Сяо укрывают шаолиньские монахи. Известия о бесчинствах местного «царька» достигают стен монастыря. Сяо Че и его новые друзья решают вмешаться и защитить простых людей от произвола жестокого завоевателя. Осуществится ли их дерзкий план? Или в финале битвы им придется спасаться бегством?

Качество: BDRip 1080p
Формат: MKV
Видео кодек: H.264
Аудио кодек: AC3, DTS
Видео: MPEG4 Video (H264), 1920x816,9 712 Kbps,23.976 fps,0.259 bits
Аудио#1: Russian: 48 kHz, DTS, 3/2 (L,C,R,l,r) + LFE ch, ~768.00 kbps avg
Аудио#2: Chinese: 48 kHz, AC3, 3/2 (L,C,R,l,r) + LFE ch, ~640.00 kbps avg








Общее
Уникальный идентификатор : 200437572269189351886546316857614754302 (0x96CADF4B358DCD27A6FECBC3CF6761FE)
Полное имя : E:Шаолинь ~ Shaolin (2011) BDRip-1080p.mkv
Формат : Matroska
Версия формата : Version 2
Размер файла : 10,2 Гбайт
Продолжительность : 2 ч. 11 м.
Общий поток : 11,1 Мбит/сек
Название фильма : -Talian-
Дата кодирования : UTC 2011-04-10 16:22:12
Программа кодирования : mkvmerge v3.3.0 ('Language') сборка от May 14 2010 17:11:50
Библиотека кодирования : libebml v0.8.0 + libmatroska v0.9.0

Видео
Идентификатор : 1
Формат : AVC
Формат/Информация : Advanced Video Codec
Профиль формата : High@L4.1
Параметр CABAC формата : Да
Параметр ReFrames формата : 5 кадров
Идентификатор кодека : V_MPEG4/ISO/AVC
Продолжительность : 2 ч. 11 м.
Битрейт : 9712 Кбит/сек
Ширина : 1920 пикселей
Высота : 816 пикселей
Соотношение сторон : 2,35:1
Режим частоты кадров : Постоянный
Частота кадров : 23,976 кадра/сек
Цветовое пространство : YUV
Субдискретизация насыщенности : 4:2:0
Битовая глубина : 8 бит
Тип развёртки : Прогрессивная
Бит/(Пиксели*Кадры) : 0.259
Размер потока : 8,69 Гбайт (85%)
Заголовок : Shaolin 2011 BluRay 1080p DTS x264-CHD
Библиотека кодирования : x264 core 107 r1766 f9f0035
Настройки программы : cabac=1 / ref=5 / deblock=1:-3:-3 / analyse=0x3:0x113 / me=umh / subme=9 / psy=1 / psy_rd=1.00:0.05 / mixed_ref=1 / me_range=32 / chroma_me=1 / trellis=2 / 8x8dct=1 / cqm=2 / deadzone=21,11 / fast_pskip=0 / chroma_qp_offset=-2 / threads=12 / sliced_threads=0 / nr=0 / decimate=1 / interlaced=0 / constrained_intra=0 / bframes=6 / b_pyramid=2 / b_adapt=2 / b_bias=0 / direct=3 / weightb=1 / open_gop=0 / weightp=2 / keyint=250 / keyint_min=23 / scenecut=40 / intra_refresh=0 / rc_lookahead=50 / rc=2pass / mbtree=1 / bitrate=9712 / ratetol=1.0 / qcomp=0.70 / qpmin=10 / qpmax=51 / qpstep=4 / cplxblur=20.0 / qblur=0.5 / vbv_maxrate=40000 / vbv_bufsize=30000 / ip_ratio=1.40 / aq=1:0.90 / nal_hrd=none
Язык : Chinese
Default : Нет
Forced : Нет

Аудио #1
Идентификатор : 2
Формат : DTS
Формат/Информация : Digital Theater Systems
Режим : 16
Параметр Endianness формата : Big
Идентификатор кодека : A_DTS
Продолжительность : 2 ч. 11 м.
Вид битрейта : Постоянный
Битрейт : 755 Кбит/сек
Каналы : 6 каналов
Расположение каналов : Front: L C R, Side: L R, LFE
Частота : 48,0 КГц
Битовая глубина : 16 бит
Метод сжатия : С потерями
Задержка видео : 22 мс.
Размер потока : 707 Мбайт (7%)
Заголовок : MVO-[BBC Saint-Petersburg]
Язык : Russian
Default : Да
Forced : Нет

Аудио #2
Идентификатор : 3
Формат : AC-3
Формат/Информация : Audio Coding 3
Расширение режима : CM (complete main)
Параметр Endianness формата : Big
Идентификатор кодека : A_AC3
Продолжительность : 2 ч. 11 м.
Вид битрейта : Постоянный
Битрейт : 640 Кбит/сек
Каналы : 6 каналов
Расположение каналов : Front: L C R, Side: L R, LFE
Частота : 48,0 КГц
Битовая глубина : 16 бит
Метод сжатия : С потерями
Размер потока : 600 Мбайт (6%)
Заголовок : Оригинал
Язык : Chinese
Default : Нет
Forced : Нет

Текст
Идентификатор : 4
Формат : UTF-8
Идентификатор кодека : S_TEXT/UTF8
Идентификатор кодека/Информация : UTF-8 Plain Text
Заголовок : Sub
Язык : English
Default : Да
Forced : Нет
pb.wtf



Скачать Шаолинь через торрент http://5.firepic.org/5/images/2014-01/31/es7fjpkry561.jpg Скачать фильм Шаолинь через торрент бесплантно в хорошем качестве Описание: Шаолинь… Вряд ли найдется человек, который не слышал этого легендарного имени и не восхищался безупречной техникой его мастеров ... 10 10 7
Info! Золотая раздача, скачанное не засчитывается.
Торрент: Зарегистрирован [2014-01-31 15:18] · скачан: 90 раз
Статус: √ проверено
Размер: 10.17 GB
Как cкачать? Как скачать Шаолинь через торрент | qTorrent

% Раздел Тема Автор DL S | L
Фильмы (HD 720p, 1080p) (48-60 fps) [ 3.01 GB ] Храм Шаолинь 3: Боевые искусства Шаолиня / The Shaolin Temple 3: Martial Arts of Shaolin [1986 BDRip 720p / 60 FPS ] от R.G. HD-Films slaventi-69 Скачать
3 | 0
Фильмы 2001-2005 [ 2.93 GB ] Убойный футбол / Шаолиньский футбол / Shaolin Soccer / Siu lam juk kau [2001 BDRip-AVC] [Китайская версия] [VO] killermax2013 Скачать
1 | 0
Азиатские фильмы [ 1.54 GB ] Деревянные люди Шаолиня / Shaolin Wooden Men [1976; Боевые исскуства; DVDRip] nobana Скачать
1 | 0
Азиатские фильмы [ 11.43 GB ] Деревянные люди Шаолиня / Shaolin wooden men [1976; Боевые исскуства; BDRip 1080p] MVO VO AVO nobana Скачать
1 | 0
Азиатские фильмы [ 1.45 GB ] Последнее испытание Шаолиня / Shao Lin mu ren / Shaolin Wooden Men [1976 Боевые искусства HDRip ] lexxus350 Скачать
1 | 0
Документальные фильмы 3D [ 14.09 GB ] Секреты Шаолиня в 3Д / Secrets of Shaolin with Jason Scott Lee / Shaolin Bootcamp 3D [2012 Документальный Боевые искусства BDremux 1080p] BD3D кэп Скачать
1 | 0
Азиатские фильмы [ 1.5 GB ] Палачи из Шаолиня / Executioners From Shaolin / Hong Xi Guan [1977 DVDRip Любительский одноголосый] lexxus350 Скачать
1 | 0

28-11-2019 20:33  

Отключить всю рекламу на сайте

    Дорогой пользователь! Огромная просьба, поблагодарите релизера, оцените раздачу и оставьте свои комментарий, если Вы скачали Шаолинь через торрент бесплатно! Внесите свою лепту в развитие PiratBit!
    Комментировать посты могут только пользователи прошедшие не сложную регистрацию
    Показать сообщения:    

    Шаолинь через торрент
    Скачать бесплатно Шаолинь
    Шаолинь скачать торрент
    Шаолинь смотреть онлайн
    Cкачать фильм Шаолинь бесплатно
    Шаолинь скачать торрент в хорошем качестве
    Шаолинь смотреть онлайн бесплатно в хорошем качестве


    Вы не можете начинать темы
    Вы не можете отвечать на сообщения
    Вы не можете редактировать свои сообщения
    Вы не можете удалять свои сообщения
    Вы не можете голосовать в опросах
    Вы не можете прикреплять файлы к сообщениям
    Вы можете скачивать файлы