2 сезон

iTunes

MVO

1

2 сезон

iTunes

iTunes

1 сезон

RePack

30

Новинка

ВАЖНО

ИГРА 18+

pack

RePack

MK11
pack

Легкие деньги

RePack

jed

RePack

fifa19

RePack

RDR2

RePack

NEED FOR SPEED™ PAYBACK

4 сезон

9 сезон

Бесстыжие 9 сезон

Все сериалы

все сериалы на PB.wtf

RePack

FAR CRY 5

Anonymous, доброй ночи, мы не успеваем собрать деньги на оплату серверов за декабрь и январь, помогите нам пожалуйста в это трудное время. В качестве благодарности мы отключим Вам всю рекламу на сайте (укажите свой ник в строку Ваше имя)!

×
  
Magnet ссылка

Молода и прекрасна / Jeune & jolie (Франсуа Озон) [2013 г., Драма, мелодрама, HDRip, Дубляж, Лицензия] pb.wtf

Молода и прекрасна через торрент pb.wtf

Размер: 1.37 GB | Добавлен: 6 лет 11 мес. назад | Торрент скачан:419 раз
Скачать  

31-01-2014 16:36 Молода и прекрасна Скачать торрент  

Молода и прекрасна / Jeune & jolie

Год выпуска: 2013
Страна: Франция
Выпущено: Canal+, Ciné, Cofimage 24, Cofinova 9
Жанр: Драма, мелодрама
Продолжительность: 01:33:20
Перевод: Дубляж, Лицензия

Режиссер: Франсуа Озон
Продюссер: Эрик Альтмайер, Николас Альтмайер
Сценарий: Франсуа Озон
Премьера в мире: 16 мая 2013

IMDB 7.10 (3376)


В ролях: Марина Вакт, Жеральдин Пайя, Фредерик Пьеро, Шарлотта Рэмплинг, Фантен Рава, Йохан Лейзен, Натали Ришар, Джедже Апали, Люка Призор, Лорен Дельбек

Описание: Семнадцатилетняя Изабель погружается в бездонный мир любви, в поиски себя. Не столько из-за денег, сколько ради удовольствия, она встречается с немолодыми клиентами в гостиничных номерах. Близкие Изабель не подозревают, чем одержима умная и тонкая девушка. Но однажды умирает один из ее постоянных клиентов...

Качество: HDRip
Формат: AVI
Видео кодек: XviD
Аудио кодек: AC3
Видео: XviD, 1706 Кбит/с, 720x384, 23.976 fps, (Bits/Pixel) : 0.257
Аудио: AC3, 6 ch, 384 Кбит/с, 48.0 KHz
General
Complete name : /home/sb753/files/Moloda.i.prekrasna.2013.D.HDRip.1400MB.avi
Format : AVI
Format/Info : Audio Video Interleave
File size : 1.37 GiB
Duration : 1h 33mn
Overall bit rate : 2 099 Kbps
Writing application : VirtualDubMod 1.5.10.2 (build 2540/release)
Writing library : VirtualDubMod build 2540/release

Video
ID : 0
Format : MPEG-4 Visual
Format profile : Advanced Simple@L5
Format settings, BVOP : 2
Format settings, QPel : No
Format settings, GMC : No warppoints
Format settings, Matrix : Default (MPEG)
Codec ID : XVID
Codec ID/Hint : XviD
Duration : 1h 33mn
Bit rate : 1 706 Kbps
Width : 720 pixels
Height : 384 pixels
Display aspect ratio : 1.85:1
Frame rate : 23.976 fps
Color space : YUV
Chroma subsampling : 4:2:0
Bit depth : 8 bits
Scan type : Progressive
Compression mode : Lossy
Bits/(Pixel*Frame) : 0.257
Stream size : 1.11 GiB (81%)
Writing library : XviD 73

Audio
ID : 1
Format : AC-3
Format/Info : Audio Coding 3
Mode extension : CM (complete main)
Format settings, Endianness : Big
Codec ID : 2000
Duration : 1h 33mn
Bit rate mode : Constant
Bit rate : 384 Kbps
Channel(s) : 6 channels
Channel positions : Front: L C R, Side: L R, LFE
Sampling rate : 48.0 KHz
Bit depth : 16 bits
Compression mode : Lossy
Stream size : 256 MiB (18%)
Alignment : Split accross interleaves
Interleave, duration : 42 ms (1.00 video frame)
Interleave, preload duration : 500 ms
pb.wtf



Скачать Молода и прекрасна через торрент http://i1.imageban.ru/out/2014/01/31/de40c6872c58e22c8085773f8e54ce57.png Скачать фильм Молода и прекрасна через торрент бесплантно в хорошем качестве Описание: Семнадцатилетняя Изабель погружается в бездонный мир любви, в поиски себя. Не столько из-за денег, сколько ради удовольствия, она ... 10 10 14
Info! Золотая раздача, скачанное не засчитывается.
Торрент: Зарегистрирован [2014-01-31 16:36] · скачан: 419 раз
Статус: √ проверено
Размер: 1.37 GB
Как cкачать? Как скачать Молода и прекрасна через торрент | UTorrent

28-11-2019 20:33  

Отключить всю рекламу на сайте

31-01-2014 16:54 Молода и прекрасна Скачать торрент  

Во, вспомнил... Я его давненько уже хотел посмотреть. Спасибо!pb.wtf



    Дорогой пользователь! Огромная просьба, поблагодарите релизера, оцените раздачу и оставьте свои комментарий, если Вы скачали Молода и прекрасна через торрент бесплатно! Внесите свою лепту в развитие PiratBit!
    Комментировать посты могут только пользователи прошедшие не сложную регистрацию
    Показать сообщения:    

    Молода и прекрасна через торрент
    Скачать бесплатно Молода и прекрасна
    Молода и прекрасна скачать торрент
    Молода и прекрасна смотреть онлайн
    Cкачать фильм Молода и прекрасна бесплатно
    Молода и прекрасна скачать торрент в хорошем качестве
    Молода и прекрасна смотреть онлайн бесплатно в хорошем качестве


    Вы не можете начинать темы
    Вы не можете отвечать на сообщения
    Вы не можете редактировать свои сообщения
    Вы не можете удалять свои сообщения
    Вы не можете голосовать в опросах
    Вы не можете прикреплять файлы к сообщениям
    Вы можете скачивать файлы