Ссылка на приватное зеркало нашего сайта всего за 1$. Внимание количество ограничено!!!

2 сезон

iTunes

1 сезон

1

iTunes

iTunes

iTunes

1 сезон

RePack

30

ИГРА 18+

pack

ВАЖНО

!!Акция!!

Alien_RageХит недели

RePack

MK11
pack

Забери бонус

RePack

jed

!!Акция!!

Alien_Rage

RePack

fifa19

RePack

Assassins Creed: Odyssey

RePack

NEED FOR SPEED™ PAYBACK

4 сезон

9 сезон

Бесстыжие 9 сезон

Все сериалы

все сериалы на PB.wtf

RePack

FAR CRY 5
  

Молода и прекрасна / Jeune & jolie (Франсуа Озон) [2013 г., Драма, мелодрама, BDRip 720p, Дубляж, Лицензия] pb.wtf

Молода и прекрасна через торрент pb.wtf

Размер: 4.05 GB | Добавлен: 6 лет 8 мес. назад | Торрент скачан:228 раз
Скачать  

31-01-2014 16:49 Молода и прекрасна Скачать торрент  

Молода и прекрасна / Jeune & jolie

Год выпуска: 2013
Страна: Франция
Выпущено: Canal+, Ciné, Cofimage 24, Cofinova 9
Жанр: Драма, мелодрама,
Продолжительность: 01:33:20
Перевод: Дубляж, Лицензия

Режиссер: Франсуа Озон
Продюссер: Эрик Альтмайер, Николас Альтмайер
Сценарий: Франсуа Озон
Премьера в мире: 16 мая 2013

IMDB 7.10 (3376)


В ролях: Марина Вакт, Жеральдин Пайя, Фредерик Пьеро, Шарлотта Рэмплинг, Фантен Рава, Йохан Лейзен, Натали Ришар, Джедже Апали, Люка Призор, Лорен Дельбек

Описание: Семнадцатилетняя Изабель погружается в бездонный мир любви, в поиски себя. Не столько из-за денег, сколько ради удовольствия, она встречается с немолодыми клиентами в гостиничных номерах. Близкие Изабель не подозревают, чем одержима умная и тонкая девушка. Но однажды умирает один из ее постоянных клиентов...

Качество: BDRip 720p
Формат: MKV
Видео кодек: AVC
Аудио кодек: AC3
Видео: MPEG-4 AVC, 5198 Кбит/с, 1280x688, 23.976 fps, (Bits/Pixel): 0.246
Аудио#1: Russian: AC3, 6 ch, 384 Кбит/с, 48.0 KHz
Аудио#2: France: AC3, 6 ch, 640 Кбит/с, 48.0 KHz
General
Unique ID : 220629551232158939370154632657748626840 (0xA5FBB4B80E5CD5518801F8621D300D98)
Complete name : /home/sb753/files/Moloda.i.prekrasna.2013.D.BDRip.720p.mkv
Format : Matroska
Format version : Version 4 / Version 2
File size : 4.05 GiB
Duration : 1h 33mn
Overall bit rate mode : Variable
Overall bit rate : 6 209 Kbps
Encoded date : UTC 2014-01-31 11:48:07
Writing application : mkvmerge v6.1.0 ('Old Devil') built on Mar 4 2013 09:10:42
Writing library : libebml v1.3.0 + libmatroska v1.4.0

Video
ID : 1
Format : AVC
Format/Info : Advanced Video Codec
Format profile : High@L4.1
Format settings, CABAC : Yes
Format settings, ReFrames : 3 frames
Codec ID : V_MPEG4/ISO/AVC
Duration : 1h 33mn
Bit rate mode : Variable
Bit rate : 5 188 Kbps
Maximum bit rate : 40.0 Mbps
Width : 1 280 pixels
Height : 688 pixels
Display aspect ratio : 1.85:1
Frame rate : 23.976 fps
Color space : YUV
Chroma subsampling : 4:2:0
Bit depth : 8 bits
Scan type : Progressive
Bits/(Pixel*Frame) : 0.246
Stream size : 3.30 GiB (82%)
Writing library : x264 core 118 r2085 8a62835
Encoding settings : cabac=1 / ref=3 / deblock=1:0:0 / analyse=0x3:0x113 / me=hex / subme=7 / psy=1 / psy_rd=1.00:0.00 / mixed_ref=1 / me_range=16 / chroma_me=1 / trellis=1 / 8x8dct=1 / cqm=0 / deadzone=21,11 / fast_pskip=1 / chroma_qp_offset=-2 / threads=12 / sliced_threads=0 / slices=4 / nr=0 / decimate=1 / interlaced=0 / bluray_compat=1 / constrained_intra=0 / bframes=3 / b_pyramid=1 / b_adapt=1 / b_bias=0 / direct=1 / weightb=1 / open_gop=1 / weightp=1 / keyint=24 / keyint_min=2 / scenecut=40 / intra_refresh=0 / rc_lookahead=24 / rc=2pass / mbtree=1 / bitrate=5188 / ratetol=1.0 / qcomp=0.60 / qpmin=0 / qpmax=69 / qpstep=4 / cplxblur=20.0 / qblur=0.5 / vbv_maxrate=40000 / vbv_bufsize=30000 / nal_hrd=vbr / ip_ratio=1.40 / aq=1:1.00
Language : French
Default : Yes
Forced : No
Color primaries : BT.709-5, BT.1361, IEC 61966-2-4, SMPTE RP177
Transfer characteristics : BT.709-5, BT.1361
Matrix coefficients : BT.709-5, BT.1361, IEC 61966-2-4 709, SMPTE RP177

Audio #1
ID : 2
Format : AC-3
Format/Info : Audio Coding 3
Mode extension : CM (complete main)
Format settings, Endianness : Big
Codec ID : A_AC3
Duration : 1h 33mn
Bit rate mode : Constant
Bit rate : 384 Kbps
Channel(s) : 6 channels
Channel positions : Front: L C R, Side: L R, LFE
Sampling rate : 48.0 KHz
Bit depth : 16 bits
Compression mode : Lossy
Stream size : 256 MiB (6%)
Language : Russian
Default : Yes
Forced : No

Audio #2
ID : 3
Format : AC-3
Format/Info : Audio Coding 3
Mode extension : CM (complete main)
Format settings, Endianness : Big
Codec ID : A_AC3
Duration : 1h 33mn
Bit rate mode : Constant
Bit rate : 640 Kbps
Channel(s) : 6 channels
Channel positions : Front: L C R, Side: L R, LFE
Sampling rate : 48.0 KHz
Bit depth : 16 bits
Compression mode : Lossy
Stream size : 427 MiB (10%)
Language : French
Default : No
Forced : No
pb.wtf



Скачать Молода и прекрасна через торрент http://i1.imageban.ru/out/2014/01/31/de40c6872c58e22c8085773f8e54ce57.png Скачать фильм Молода и прекрасна через торрент бесплантно в хорошем качестве Описание: Семнадцатилетняя Изабель погружается в бездонный мир любви, в поиски себя. Не столько из-за денег, сколько ради удовольствия, она ... 10 10 5
Info! Золотая раздача, скачанное не засчитывается.
Торрент: Зарегистрирован [2014-01-31 16:49] · скачан: 228 раз
Статус: √ проверено
Размер: 4.05 GB
Как cкачать? Как скачать Молода и прекрасна через торрент | qTorrent

28-11-2019 20:33  

Отключить всю рекламу на сайте

    Дорогой пользователь! Огромная просьба, поблагодарите релизера, оцените раздачу и оставьте свои комментарий, если Вы скачали Молода и прекрасна через торрент бесплатно! Внесите свою лепту в развитие PiratBit!
    Комментировать посты могут только пользователи прошедшие не сложную регистрацию
    Показать сообщения:    

    Молода и прекрасна через торрент
    Скачать бесплатно Молода и прекрасна
    Молода и прекрасна скачать торрент
    Молода и прекрасна смотреть онлайн
    Cкачать фильм Молода и прекрасна бесплатно
    Молода и прекрасна скачать торрент в хорошем качестве
    Молода и прекрасна смотреть онлайн бесплатно в хорошем качестве


    Вы не можете начинать темы
    Вы не можете отвечать на сообщения
    Вы не можете редактировать свои сообщения
    Вы не можете удалять свои сообщения
    Вы не можете голосовать в опросах
    Вы не можете прикреплять файлы к сообщениям
    Вы можете скачивать файлы