2 сезон

iTunes

MVO

1

2 сезон

iTunes

iTunes

1 сезон

RePack

30

Новинка

ВАЖНО

ИГРА 18+

pack

RePack

MK11
pack

Легкие деньги

RePack

jed

RePack

fifa19

RePack

RDR2

RePack

NEED FOR SPEED™ PAYBACK

4 сезон

9 сезон

Бесстыжие 9 сезон

Все сериалы

все сериалы на PB.wtf

RePack

FAR CRY 5

Anonymous, добрый день, мы не успеваем собрать деньги на оплату серверов за декабрь и январь, помогите нам пожалуйста в это трудное время. В качестве благодарности мы отключим Вам всю рекламу на сайте (укажите свой ник в строку Ваше имя)!

×
  
Magnet ссылка

Ночной поезд до Лиссабона / Night Train to Lisbon (Билле Аугуст) [2013 г., Триллер, мелодрама, детектив, HDRip, Профессиональный многоголосый] pb.wtf

Ночной поезд до Лиссабона через торрент pb.wtf

Размер: 1.36 GB | Добавлен: 6 лет 11 мес. назад | Торрент скачан:233 раза
Скачать  

01-02-2014 04:57 Ночной поезд до Лиссабона Скачать торрент  

Ночной поезд до Лиссабона / Night Train to Lisbon

Год выпуска: 2013
Страна: Германия, Швейцария, Португалия,
Выпущено: C-Films AG, Cinemate, Efish Entertainment, K5 Film
Жанр: Триллер, мелодрама, детектив
Продолжительность: 01:46:30
Перевод: Профессиональный многоголосый [Online movies - OLL]

Режиссер: Билле Аугуст
Продюссер: Дэниэл Баур, Эрик Фишер, Кевин Скотт Фрайкс
Сценарий: Грег Лэттер, Ульрих Херрманн, Паскаль Мерсье
Премьера в мире: 13 февраля 2013

IMDB 6.80 (4763)


В ролях: Джереми Айронс, Мелани Лоран, Джек Хьюстон, Мартина Гедек, Лена Улин, Аугуст Диль, Бруно Ганц, Кристофер Ли, Шарлотта Рэмплинг, Том Кортни

Описание: Раймунд Григориус, швейцарский профессор древних языков, спасает португальскую женщину от самоубийства и находит у нее книгу, написанную португальским автором Амадеу ди Праду, о сопротивлении диктаторскому режиму Антонио ди Оливейра Салазара. Полностью поглощенный книгой главный герой посвящает свою жизнь изучению португальской истории в целом, и в частности работам Амадеу ди Праду.

Качество: HDRip
Формат: AVI
Видео кодек: XviD
Аудио кодек: AC3
Видео: XviD, 1633 Кбит/с, 720x384, 25.000 fps, (Bits/Pixel): 0.236
Аудио: AC3, 2 ch, 192 Кбит/с, 48.0 KHz
General
Complete name : /home/sb753/files/Night.Train.To.Lisbon.2013.P.HDRip.1400MB..avi
Format : AVI
Format/Info : Audio Video Interleave
File size : 1.36 GiB
Duration : 1h 46mn
Overall bit rate : 1 834 Kbps
Writing application : VirtualDubMod 1.5.10.2 (build 2540/release)
Writing library : VirtualDubMod build 2540/release

Video
ID : 0
Format : MPEG-4 Visual
Format profile : Advanced Simple@L5
Format settings, BVOP : 1
Format settings, QPel : No
Format settings, GMC : No warppoints
Format settings, Matrix : Default (H.263)
Codec ID : XVID
Codec ID/Hint : XviD
Duration : 1h 46mn
Bit rate : 1 633 Kbps
Width : 720 pixels
Height : 384 pixels
Display aspect ratio : 1.85:1
Frame rate : 25.000 fps
Color space : YUV
Chroma subsampling : 4:2:0
Bit depth : 8 bits
Scan type : Progressive
Compression mode : Lossy
Bits/(Pixel*Frame) : 0.236
Stream size : 1.21 GiB (89%)
Writing library : XviD 1.2.1 (UTC 2008-12-04)

Audio
ID : 1
Format : AC-3
Format/Info : Audio Coding 3
Mode extension : CM (complete main)
Format settings, Endianness : Big
Codec ID : 2000
Duration : 1h 46mn
Bit rate mode : Constant
Bit rate : 192 Kbps
Channel(s) : 2 channels
Channel positions : Front: L R
Sampling rate : 48.0 KHz
Bit depth : 16 bits
Compression mode : Lossy
Stream size : 146 MiB (10%)
Alignment : Split accross interleaves
Interleave, duration : 40 ms (1.00 video frame)
Interleave, preload duration : 500 ms
pb.wtf



Скачать Ночной поезд до Лиссабона через торрент http://i3.imageban.ru/out/2014/02/01/f7ea72bd71867888971653d827ae87be.png Скачать фильм Ночной поезд до Лиссабона через торрент бесплантно в хорошем качестве Описание: Раймунд Григориус, швейцарский профессор древних языков, спасает португальскую женщину от самоубийства и находит у нее книгу, ... 9.8 10 13
Info! Золотая раздача, скачанное не засчитывается.
Торрент: Зарегистрирован [2014-02-01 04:57] · скачан: 233 раз
Статус: √ проверено
Размер: 1.36 GB
Как cкачать? Как скачать Ночной поезд до Лиссабона через торрент | UTorrent

% Раздел Тема Автор DL S | L
Фильмы [HD 720p, 1080p] (Хороший звук DUB, MVO) [ 5.03 GB ] Ночной поезд до Лиссабона / Night Train to Lisbon [2013 BDRip 720p MVO DVO Original] кэп Скачать
1 | 0
Фильмы [HD 720p, 1080p] (Хороший звук DUB, MVO) [ 11.34 GB ] Ночной поезд до Лиссабона / Night Train To Lisbon [2013 BDRip 1080p]MVO+DVO sdolotov Скачать
1 | 0

28-11-2019 20:33  

Отключить всю рекламу на сайте

    Дорогой пользователь! Огромная просьба, поблагодарите релизера, оцените раздачу и оставьте свои комментарий, если Вы скачали Ночной поезд до Лиссабона через торрент бесплатно! Внесите свою лепту в развитие PiratBit!
    Комментировать посты могут только пользователи прошедшие не сложную регистрацию
    Показать сообщения:    

    Ночной поезд до Лиссабона через торрент
    Скачать бесплатно Ночной поезд до Лиссабона
    Ночной поезд до Лиссабона скачать торрент
    Ночной поезд до Лиссабона смотреть онлайн
    Cкачать фильм Ночной поезд до Лиссабона бесплатно
    Ночной поезд до Лиссабона скачать торрент в хорошем качестве
    Ночной поезд до Лиссабона смотреть онлайн бесплатно в хорошем качестве


    Вы не можете начинать темы
    Вы не можете отвечать на сообщения
    Вы не можете редактировать свои сообщения
    Вы не можете удалять свои сообщения
    Вы не можете голосовать в опросах
    Вы не можете прикреплять файлы к сообщениям
    Вы можете скачивать файлы