Всегда рабочее зеркало без VPN и Proxy просто перед .vidak.icu напиши любое слово или цифру, Пример http://l4jt.vidak.icu

MVO

2 сезон

2 сезон

1

1 сезон

iTunes

2 сезон

13

1 сезон

Deluxe

pack

Рекомендуем

Пиратка

30

ВАЖНО

RePack

MK11

RePack

jed

RePack

fifa19

RePack

RDR2

RePack

NEED FOR SPEED™ PAYBACK

Кинопоиск HD

6 сезон

 Острые козырьки 6 сезон

Все сериалы

все сериалы на PB.wtf

RePack

FAR CRY 5

Anonymous, нам критически не хватает 5601 руб. на оплату серверов и переферии за Апрель, помоги нам пожалуйста, вся надежда только на тебя. В благодарность мы отключим тебе всю рекламу на сайте!

×
  
Magnet ссылка

Тело / El cuerpo (Ориол Паоло / Oriol Paulo) [ 2012 , Испания , триллер , HDRip ]AVO pb.wtf

Тело через торрент pb.wtf

Размер: 1.68 GB | Добавлен: 8 лет 3 мес. назад | Торрент скачан:885 раз
Смотреть онлайн Тело | Скачать    Ребята, помогите собрать деньги на оплату серверов!!!

01-02-2014 05:38 Тело Скачать торрент  

Тело / El cuerpo
«В стиле Хичкока, психологический триллер»

Год выпуска: 2012
Страна: Испания
Жанр: триллер
Продолжительность: 01:54:01
Перевод: Авторский (Боровой (Карповский) Антон)
Субтитры: Нет

Режиссер: Ориол Паоло / Oriol Paulo
Сценарий: Ориол Паоло / Oriol Paulo, Лара Сендим / Lara Sendim
Продюсер: Мерседес Гамеро / Mercedes Gamero, Микель Лехарса / Mikel Lejarza, Хоакин Падро / Joaquín Padró, Мар Тарганова / Mar Targarona, Reyes Matabuena
Оператор: Оскар Фаура / Óscar Faura
Композитор: Серхио Моуре / Sergio Moure

Хосе Коронадо (Jaime PeГ±a), Уго Силва (ГЃlex Ulloa), Белен Руэда (Mayka Villaverde), Аура Гарридо (Carla), Мигель Гелаберт (Vigilante ГЃngel Torres), Хуан Пабло Шук (Agente Pablo), Ориоль Вила (Agente Mateos), Карлота Ольсина (Erica Ulloa), Патрисия Баргальо (Agente Norma), Миа Эстеве (Luna Villaverde), Сильвия Аранда (Ruth), Манель Дуэсо (Agente Carlos)

Мировая премьера: 4 октября 2012

Описание:Автомобиль сбивает человека, убегающего от кого-то или от чего-то в панике. Прибывшие на место полицейские выясняют, что это - ночной сторож из близлежащего морга. Так что так напугало несчастного? И куда делся из отсека N3 недавно привезенный в морг труп?..

Рейтинг
kinopoisk.ru: 7.452 (2731)
imdb.com: 7.10 (4433)

Качество: HDRip
Формат: AVI
Видео кодек: XviD
Аудио кодек: AC3
Видео: 1661 Кбит/сек, 720*304 (2,35:1), в 24,000 кадра/сек, MPEG-4 Visual (XviD)
Аудио: 448 Кбит/сек, 48,0 КГц, 16 бит, 6 каналов, AC-3

Общее
Кол-во : 284
Кол-во потоков такого типа : 1
Тип потока : General
Тип потока : Общее
Идентификатор типа потока : 0
Inform : AVI: 1,68 Гбайт, 1 ч. 54 м.
Кол-во видеопотоков : 1
Кол-во аудиопотоков : 1
Video_Format_List : MPEG-4 Visual
Video_Format_WithHint_List : MPEG-4 Visual (XviD)
Видеокодеки : XviD
Audio_Format_List : AC-3
Audio_Format_WithHint_List : AC-3
Аудиокодеки : AC3
Полное имя : H:ТОРРЕНТЫТело.avi
Имя папки : H:ТОРРЕНТЫ
Имя файла : Тело
Расширение : avi
Формат : AVI
Формат : AVI
Формат/Информация : Audio Video Interleave
Формат/Используется в : avi
Коммерческое название : AVI
Интернет-тип носителя : video/vnd.avi
Чередующаяся : Yes
Кодек : AVI
Кодек : AVI
Кодек/Информация : Audio Video Interleave
Кодек/Используется в : avi
Размер файла : 1801977856
Размер файла : 1,68 Гбайт
Размер файла : 2 Гбайт
Размер файла : 1,7 Гбайт
Размер файла : 1,68 Гбайт
Размер файла : 1,678 Гбайт
Продолжительность : 6841375
Продолжительность : 1 ч. 54 м.
Продолжительность : 1 ч. 54 м. 1 с. 375 мс.
Продолжительность : 1 ч. 54 м.
Продолжительность : 01:54:01.375
Общий поток : 2107153
Общий поток : 2107 Кбит/сек
Размер потока : 7984521
Размер потока : 7,61 Мбайт (0%)
Размер потока : 8 Мбайт
Размер потока : 7,6 Мбайт
Размер потока : 7,61 Мбайт
Размер потока : 7,615 Мбайт
Размер потока : 7,61 Мбайт (0%)
Пропорции потока : 0.00443
Дата файла : UTC 2014-02-01 05:03:07.410
Дата файла (местная) : 2014-02-01 12:03:07.410
Дата изменения файла : UTC 2014-02-01 05:09:52.436
Дата изменения файла (местная) : 2014-02-01 12:09:52.436
Программа кодирования : VirtualDubMod 1.5.10.2 (build 2540/release)
Библиотека кодирования : VirtualDubMod build 2540/release
Библиотека кодирования : VirtualDubMod build 2540/release

Видео
Кол-во : 271
Кол-во потоков такого типа : 1
Тип потока : Video
Тип потока : Видео
Идентификатор типа потока : 0
StreamOrder : 0
Inform : 1661 Кбит/сек, 720*304 (2,35:1), в 24,000 кадра/сек, MPEG-4 Visual (XviD) (Advanced Simple@L5) (BVOP2)
Идентификатор : 0
Идентификатор : 0
Формат : MPEG-4 Visual
Коммерческое название : MPEG-4 Visual
Профиль формата : Advanced Simple@L5
Настройки формата : BVOP2
Параметр BVOP формата : 2
Параметр BVOP формата : 2
Параметр QPel формата : No
Параметр QPel формата : Нет
Параметр GMC формата : 0
Параметр GMC формата : Без точки перехода
Параметр матрицы формата : Default (H.263)
Параметр матрицы формата : Default (H.263)
Интернет-тип носителя : video/MP4V-ES
Идентификатор кодека : XVID
Идентификатор кодека/Подсказка : XviD
Идентификатор кодека/Ссылка : http://mediaarea.net/XVID
Кодек : XVID
Кодек : XviD
Кодек/Семейство : MPEG-4V
Кодек/Информация : XviD project
Кодек/Ссылка : http://www.xvid.org/Downloads.15.0.html
Кодек/CC : XVID
Профиль кодека : Advanced Simple@L5
Настройки кодека : BVOP
Параметр пакетного потока данных кодека : No
Параметр BVOP кодека : Yes
Параметр QPel кодека : No
Параметр GMC кодека : 0
Параметр GMC кодека : Без точки перехода
Параметр матрицы кодека : Default (H.263)
Продолжительность : 6841375
Продолжительность : 1 ч. 54 м.
Продолжительность : 1 ч. 54 м. 1 с. 375 мс.
Продолжительность : 1 ч. 54 м.
Продолжительность : 01:54:01.375
Битрейт : 1660913
Битрейт : 1661 Кбит/сек
Ширина : 720
Ширина : 720 пикселей
Высота : 304
Высота : 304 пикселя
Пропорции пикселя : 1.000
Соотношение сторон : 2.368
Соотношение сторон : 2,35:1
Частота кадров : 24.000
Частота кадров : 24,000 кадра/сек
Счётчик кадров : 164193
Разрешение : 8
Разрешение : 8 бит
Колориметрия : 4:2:0
Цветовое пространство : YUV
Субдискретизация насыщенности : 4:2:0
Битовая глубина : 8
Битовая глубина : 8 бит
Тип развёртки : Progressive
Тип развёртки : Прогрессивная
Переплетение : PPF
Переплетение : Прогрессивная
Метод сжатия : Lossy
Метод сжатия : С потерями
Бит/(Пиксели*Кадры) : 0.316
Задержка : 0
Задержка : 00:00:00.000
Размер потока : 1420365703
Размер потока : 1,32 Гбайт (79%)
Размер потока : 1 Гбайт
Размер потока : 1,3 Гбайт
Размер потока : 1,32 Гбайт
Размер потока : 1,323 Гбайт
Размер потока : 1,32 Гбайт (79%)
Пропорции потока : 0.78823
Библиотека кодирования : XviD0050
Библиотека кодирования : XviD 1.2.1 (UTC 2008-12-04)
Библиотека кодирования/Имя : XviD
Библиотека кодирования/Version : 1.2.1
Библиотека кодирования/Дата : UTC 2008-12-04

Аудио
Кол-во : 243
Кол-во потоков такого типа : 1
Тип потока : Audio
Тип потока : Аудио
Идентификатор типа потока : 0
StreamOrder : 1
Inform : 448 Кбит/сек, 48,0 КГц, 16 бит, 6 каналов, AC-3
Идентификатор : 1
Идентификатор : 1
Формат : AC-3
Формат/Информация : Audio Coding 3
Коммерческое название : AC-3
Расширение режима : CM (complete main)
Параметр Endianness формата : Big
Идентификатор кодека : 2000
Кодек : AC3
Кодек : AC3
Кодек/Семейство : AC3
Кодек/Информация : Dolby AC3
Кодек/CC : 2000
Продолжительность : 6671922
Продолжительность : 1 ч. 51 м.
Продолжительность : 1 ч. 51 м. 11 с. 922 мс.
Продолжительность : 1 ч. 51 м.
Продолжительность : 01:51:11.922
Вид битрейта : CBR
Вид битрейта : Постоянный
Битрейт : 448000
Битрейт : 448 Кбит/сек
Каналы : 6
Каналы : 6 каналов
Расположение каналов : Front: L C R, Side: L R, LFE
Расположение каналов : 3/2/0.1
Частота : 48000
Частота : 48,0 КГц
Количество образцов : 320252256
Разрешение : 16
Разрешение : 16 бит
Битовая глубина : 16
Битовая глубина : 16 бит
Метод сжатия : Lossy
Метод сжатия : С потерями
Задержка : 0
Задержка : 00:00:00.000
Задержка в оригинале : Stream
Задержка в оригинале : 'Сырой' поток
Задержка видео : 0
Задержка видео : 0
Размер потока : 373627632
Размер потока : 356 Мбайт (21%)
Размер потока : 356 Мбайт
Размер потока : 356 Мбайт
Размер потока : 356 Мбайт
Размер потока : 356,3 Мбайт
Размер потока : 356 Мбайт (21%)
Пропорции потока : 0.20734
Выравнивание : Split
Выравнивание : Разделение по промежуткам
Продолжительность промежутка : 1.03
Продолжительность промежутка : 43
Продолжительность промежутка : 43 мс. (1,03 видеокадр)
Время предзагрузки промежутка : 500
Время предзагрузки промежутка : 500 мс.
bsid : 4
dialnorm : -31
dialnorm/String : -31 dB
compr : -0.28
compr/String : -0.28 dB
acmod : 7
lfeon : 1
dialnorm_Average : -31
dialnorm_Average/String : -31 dB
dialnorm_Minimum : -31
dialnorm_Minimum/String : -31 dB
dialnorm_Maximum : -31
dialnorm_Maximum/String : -31 dB
dialnorm_Count : 404
compr_Average : -0.28
compr_Average/String : -0.28 dB
compr_Minimum : -0.28
compr_Minimum/String : -0.28 dB
compr_Maximum : -0.28
compr_Maximum/String : -0.28 dB
compr_Count : 404


скриншот  скриншот  скриншот  скриншот  скриншот  скриншот  скриншот  



pb.wtf



Скачать Тело через торрент http://trueimages.ru/img/e7/11/d768ce25.jpg Скачать, смотреть онлайн Тело бесплантно в хорошем качестве Описание:Автомобиль сбивает человека, убегающего от кого-то или от чего-то в панике. Прибывшие на место полицейские выясняют, что это - ... 10 10 16
Info! Золотая раздача, скачанное не засчитывается.
Торрент: Зарегистрирован [2014-02-01 05:38] · скачан: 885 раз
Статус: √ проверено
Размер: 1.68 GB
Как cкачать? Как скачать Тело через торрент | UTorrent

% Раздел Тема Автор DL S | L
Фильмы 2012 [ 3.53 GB ] Тело / El cuerpo [2012 BDRip by msltel] MVO AVO 2 x VO msltel Скачать
1 | 0
Фильмы [HD 720p, 1080p] (Хороший звук DUB, MVO) [ 13.96 GB ] Тело / El cuerpo [2012 BDRip 1080p by msltel] MVO AVO 2 x VO msltel Скачать
1 | 0
Фильмы [HD 720p, 1080p] (Хороший звук DUB, MVO) [ 5.34 GB ] Тело / El cuerpo [2012 BDRip 720p by msltel] MVO AVO 2 x VO msltel Скачать
1 | 0
Фильмы с авторской озвучкой [ 5.8 GB ] Тело / El cuerpo [ 2012 Испания BDRip 720]AVO GEKADOL Скачать
1 | 0

28-11-2019 20:33  

Отключить всю рекламу на сайте

    Дорогой пользователь! Огромная просьба, поблагодарите релизера, оцените раздачу и оставьте свои комментарий, если Вы скачали Тело через торрент бесплатно!
    Комментировать посты могут только пользователи прошедшие не сложную регистрацию
    Показать сообщения:    

    Тело через торрент
    Скачать бесплатно Тело
    Тело скачать торрент
    Тело смотреть онлайн
    Cкачать фильм Тело бесплатно
    Тело скачать торрент в хорошем качестве
    Тело смотреть онлайн бесплатно в хорошем качестве


    Вы не можете начинать темы
    Вы не можете отвечать на сообщения
    Вы не можете редактировать свои сообщения
    Вы не можете удалять свои сообщения
    Вы не можете голосовать в опросах
    Вы не можете прикреплять файлы к сообщениям
    Вы можете скачивать файлы