Всегда рабочее зеркало просто перед .vidak.icu напиши любое слово или цифру, Пример http://sgv.vidak.icu

>

7.4

iTunes

7.4

2 сезон

9.4

1 сезон

1

7.4

2 сезон

7.2

iTunes

6.0

MVO

13

6.1

iTunes

8.3

Пиратка

30

ULTIMATE

pack

9.9

Лицензия

ВАЖНО

ИГРА 18+

pack

7.3

RePack

MK11

7.7

RePack

jed

7.8

RePack

fifa19

8.5

RePack

RDR2

RePack

NEED FOR SPEED™ PAYBACK

1 сезон

9 сезон

Бесстыжие 9 сезон

Все сериалы

все сериалы на PB.wtf

RePack

FAR CRY 5

Anonymous, добрый день, мы катастрофически не успеваем собрать деньги на оплату серверов, помогите нам пожалуйста 5,10,15р., для нас важна любая помощь . В качестве благодарности мы отключим Вам всю рекламу на сайте (укажите свой ник в строку Ваше имя)!

×
  
Magnet ссылка

Форсаж 5 / Fast Five (Джастин Лин) [2011, боевик, триллер, драма, криминал, BDRip] [EXTENDED] [AVO] (А.Гаврилов) pb.wtf

Форсаж 5 через торрент pb.wtf

Размер: 2.24 GB | Добавлен: 7 лет 11 мес. назад | Торрент скачан:146 раз
Смотреть онлайн Форсаж 5 | Скачать    Ребята, помогите собрать деньги на оплату серверов!!!

01-02-2014 10:56 Форсаж 5 Скачать торрент  

Форсаж 5 / Fast Five
Год выхода: 2011
Страна: США, Dark Side Productions
Жанр: боевик, триллер, драма, криминал
Продолжительность: 02:11:34
Перевод: Авторский (одноголосый, закадровый)[А.Гаврилов]

Режиссер: Джастин Лин

В ролях: Вин Дизель, Пол Уокер, Дуэйн Джонсон, Джордана Брюстер, Тайриз Гибсон, Лудакрис, Мэтт Шульце, Санг Кенг, Гал Гадот, Тего Калдерон, Дон Омар и др.

Описание:
Бывший полицейский Брайан О'Коннер вместе с бывалым лихачем Домиником Торетто совсем немного увлеклись жизнью вне закона. После того, как Брайан и Миа Торетто освободили Доминика, они не рискуют долго задерживаться на одном месте, так как являются желанной целью порядком недовольных копов.



Качество: BDRip | EXTENDED
Контейнер: AVI
Видео кодек: XviD
Аудио кодек: AC3
Видео: 720x304 (2.37:1), 23.976 fps, XviD build 64 ~1982 kbps avg, 0.38 bit/pixel
Аудио: 48 kHz, AC3 Dolby Digital, 3/2 (L,C,R,l,r) + LFE ch, ~448 kbps - А.Гаврилов

Автор рипа: DeASS
За дорогу Гаврилова спасибо Skazhutin (hdclub).

Цитата:

Дорожка с переводом А. Гаврилова доступна благодаря пользователям форума e180: Nadoelo, Guyver, dr_akula, foxlight, Hattori Hanzo, Марлон, Kastro, ANISKIN50, Iceman, Bilko, SavineX78, MyxAmoP, uchitel538, maximus10-99, karantin66, фёдор александрович, Диммон, Loki1982, masta, Tio, mitabrev, vik19662007, Daniel Rock, jorn2, Wolf_Larsen, nimph, LAVR, ZeDOK, aladdin911, Savely, kinobbk, GaryH, El Capitain, 2vova2, bla_, STONECOLD, Серый, Denis2251, carnivale.

General
Complete name : D:Films 2Fast Five.2011 [Extended Cut] BDRip.avi
Format : AVI
Format/Info : Audio Video Interleave
Format profile : OpenDML
File size : 2.24 GiB
Duration : 2h 11mn
Overall bit rate : 2 437 Kbps
Writing application : VirtualDubMod 1.5.10.3 (build 2550/release)

Video
ID : 0
Format : MPEG-4 Visual
Format profile : Advanced Simple@L5
Format settings, BVOP : 1
Format settings, QPel : No
Format settings, GMC : No warppoints
Format settings, Matrix : Custom
Codec ID : XVID
Codec ID/Hint : XviD
Duration : 2h 11mn
Bit rate : 1 977 Kbps
Width : 720 pixels
Height : 304 pixels
Display aspect ratio : 2.35:1
Frame rate : 23.976 fps
Color space : YUV
Chroma subsampling : 4:2:0
Bit depth : 8 bits
Scan type : Progressive
Compression mode : Lossy
Bits/(Pixel*Frame) : 0.377
Stream size : 1.82 GiB (81%)
Writing library : XviD 64

Audio
ID : 1
Format : AC-3
Format/Info : Audio Coding 3
Mode extension : CM (complete main)
Format settings, Endianness : Big
Codec ID : 2000
Duration : 2h 11mn
Bit rate mode : Constant
Bit rate : 448 Kbps
Channel count : 6 channels
Channel positions : Front: L C R, Side: L R, LFE
Sampling rate : 48.0 KHz
Bit depth : 16 bits
Compression mode : Lossy
Stream size : 422 MiB (18%)
Alignment : Split accross interleaves
Interleave, duration : 42 ms (1.00 video frame)
Interleave, preload duration : 500 ms
pb.wtf



Скачать Форсаж 5 через торрент http://i33.fastpic.ru/big/2014/0201/88/8a17e5e7c997e163f35e6f4edfd4d188.jpg Скачать, смотреть онлайн Форсаж 5 бесплантно в хорошем качестве Описание: Бывший полицейский Брайан О'Коннер вместе с бывалым лихачем Домиником Торетто совсем немного увлеклись жизнью вне закона. После ... 10 10 9
Info! Золотая раздача, скачанное не засчитывается.
Торрент: Зарегистрирован [2014-02-01 10:56] · скачан: 146 раз
Статус: √ проверено
Размер: 2.24 GB
Как cкачать? Как скачать Форсаж 5 через торрент | UTorrent

% Раздел Тема Автор DL S | L
Ultra HD (UHD: 2K, 4K, 8K) — видео сверхвысокой чёткости [ 56.53 GB ] Форсаж 5 / Fast Five [2011 UHD Blu-Ray EUR 2160p] DUB [] bober100 Скачать
1 | 0
Ultra HD (UHD: 2K, 4K, 8K) — видео сверхвысокой чёткости [ 52.45 GB ] Форсаж 5 / Fast Five [2011 UHD BDRemux 2160p] [Театральная версия] DUB [ BD EUR] +AVO [А. Киреев] bober100 Скачать
1 | 0
Ultra HD (UHD: 2K, 4K, 8K) — видео сверхвысокой чёткости [ 56.14 GB ] Форсаж 5 / Fast Five [2011 UHD BDRemux 2160p] DUB [] + 2xAVO [Расширенная версия] sheker187 Скачать
1 | 0
Фильмы [HD 720p, 1080p] (Хороший звук DUB, MVO) [ 5.44 GB ] Форсаж 5 / Fast Five [2011 BDRip 1080p HEVC ] Мичман37 Скачать
1 | 0
Фильмы [HD 720p, 1080p] (Хороший звук DUB, MVO) [ 4.85 GB ] Форсаж 5 / Fast Five [2011 BDRip 720p от Leonardo / Extended Cut / ] Ворон Скачать
1 | 0
Фильмы [HD 720p, 1080p] (Хороший звук DUB, MVO) [ 7.76 GB ] Форсаж 5 / Fast Five [2011 BDRip 1080p + Оригинал] Бумер Скачать
1 | 0
Фильмы 2011 [ 1.45 GB ] Форсаж 5 / Fast Five [2011 HDTVRip] killermax2013 Скачать
1 | 0

28-11-2019 20:33  

Отключить всю рекламу на сайте

01-02-2014 13:44 Форсаж 5 Скачать торрент  

Перевод: Авторский (одноголосый, закадровый)[А.Гаврилов] - зачем этот перевод нужен если уже давно лиц. 5 и 6 вышлаpb.wtf



01-02-2014 16:31 Форсаж 5 Скачать торрент  

777AssAssIn777 писал(а):

Перевод: Авторский (одноголосый, закадровый)[А.Гаврилов] - зачем этот перевод нужен если уже давно лиц. 5 и 6 вышла

Перевод: Авторский а не любительский Любите смотреть в бубняже то кто ж вам мешает Раздача для ценителей авторского перевода Остальные могут пройти мимо и смотреть свою лицензию pb.wtf



    Дорогой пользователь! Огромная просьба, поблагодарите релизера, оцените раздачу и оставьте свои комментарий, если Вы скачали Форсаж 5 через торрент бесплатно!
    Комментировать посты могут только пользователи прошедшие не сложную регистрацию
    Показать сообщения:    

    Форсаж 5 через торрент
    Скачать бесплатно Форсаж 5
    Форсаж 5 скачать торрент
    Форсаж 5 смотреть онлайн
    Cкачать фильм Форсаж 5 бесплатно
    Форсаж 5 скачать торрент в хорошем качестве
    Форсаж 5 смотреть онлайн бесплатно в хорошем качестве


    Вы не можете начинать темы
    Вы не можете отвечать на сообщения
    Вы не можете редактировать свои сообщения
    Вы не можете удалять свои сообщения
    Вы не можете голосовать в опросах
    Вы не можете прикреплять файлы к сообщениям
    Вы можете скачивать файлы