Ссылка на приватное зеркало нашего сайта всего за 1$. Внимание количество ограничено!!!

2 сезон

iTunes

1 сезон

1

iTunes

iTunes

iTunes

1 сезон

RePack

30

ИГРА 18+

pack

ВАЖНО

!!Акция!!

Alien_RageХит недели

RePack

MK11
pack

Забери бонус

RePack

jed

!!Акция!!

Alien_Rage

RePack

fifa19

RePack

Assassins Creed: Odyssey

RePack

NEED FOR SPEED™ PAYBACK

4 сезон

9 сезон

Бесстыжие 9 сезон

Все сериалы

все сериалы на PB.wtf

RePack

FAR CRY 5
  

Ночной поезд до Лиссабона / Night Train To Lisbon [2013,триллер, мелодрама, детектив, BDRip 1080p]MVO+DVO pb.wtf

Ночной поезд до Лиссабона через торрент pb.wtf

Размер: 11.34 GB | Добавлен: 6 лет 8 мес. назад | Торрент скачан:70 раз
Скачать  

01-02-2014 14:41 Ночной поезд до Лиссабона Скачать торрент  

Ночной поезд до Лиссабона

Оригинальное название: Night Train To Lisbon
Год выхода: 2013
Страна: Германия, Швейцария, Португалия
Продолжительность: 01:46:30
Озвучивание: Профессиональное (многоголосое) [online movies - OLL] +Любительское (двухголосое) [HamsterStudio]
Субтитры: Russian [kon2011], English
Жанр: триллер, мелодрама, детектив
Режиссер: Билле Аугуст
В ролях: Джереми Айронс, Мелани Лоран, Джек Хьюстон, Мартина Гедек, Лена Улин, Аугуст Диль, Бруно Ганц, Кристофер Ли, Шарлотта Рэмплинг, Том Кортни

Описание:
Раймунд Григориус, швейцарский профессор древних языков, спасает португальскую женщину от самоубийства и находит у нее книгу, написанную португальским автором Амадеу ди Праду, о сопротивлении диктаторскому режиму Антонио ди Оливейра Салазара. Полностью поглощенный книгой главный герой посвящает свою жизнь изучению португальской истории в целом, и в часности работам Амадеу ди Праду.



Качество: BDRip 1080p [EA]
Формат: MKV
Видео кодек: AVC
Аудио кодек: AC3
Видео: 13411 kb/s, 1920x1040,25,000 кадров/сек
Аудио: Russian: [OLL]: AC3, 192 kb/s (2 ch) 48,0 КГц
Аудио: Russian: [HamsterStudio]: AC3, 448 kb/s (6 ch) 48,0 КГц
Аудио: English: AC3, 640 kb/s (6 ch) 48,0 КГц
Дополнительно: Сохранены оригинальные чаптеры как на Blu-Ray
Сэмпл
скриншот  скриншот  скриншот  скриншот  
Общее
Night.Train.To.Lisbon.2013.Blu.Ray.1080p.mkv
Формат : Matroska
Версия формата : Version 4 / Version 2
Размер файла : 11,3 Гбайт
Продолжительность : 1 ч. 46 м.
Общий поток : 15,2 Мбит/сек
Название фильма : Night Train To Lisbon
Дата кодирования : UTC 2014-01-31 22:51:30
Программа кодирования : mkvmerge v6.7.0 ('Back to the Ground') 64bit built on Jan 8 2014 15:10:52
Библиотека кодирования : libebml v1.3.0 + libmatroska v1.4.1

Видео
Идентификатор : 1
Формат : AVC
Формат/Информация : Advanced Video Codec
Профиль формата : High@L4.1
Параметр CABAC формата : Да
Параметр ReFrames формата : 4 кадра
Идентификатор кодека : V_MPEG4/ISO/AVC
Продолжительность : 1 ч. 46 м.
Битрейт : 13,4 Мбит/сек
Ширина : 1920 пикселей
Высота : 1040 пикселей
Соотношение сторон : 1,85:1
Режим частоты кадров : Постоянный
Частота кадров : 25,000 кадров/сек
Цветовое пространство : YUV
Субдискретизация насыщенности : 4:2:0
Битовая глубина : 8 бит
Тип развёртки : Прогрессивная
Бит/(Пиксели*Кадры) : 0.269
Размер потока : 9,97 Гбайт (88%)
Заголовок : Night Train To Lisbon
Библиотека кодирования : x264 core 133 r2334 a3ac64b
Настройки программы : cabac=1 / ref=4 / deblock=1:-3:-3 / analyse=0x3:0x113 / me=umh / subme=11 / psy=1 / psy_rd=1.10:0.00 / mixed_ref=1 / me_range=32 / chroma_me=1 / trellis=2 / 8x8dct=1 / cqm=0 / deadzone=21,11 / fast_pskip=0 / chroma_qp_offset=-2 / threads=12 / lookahead_threads=2 / sliced_threads=0 / nr=0 / decimate=0 / interlaced=0 / bluray_compat=0 / constrained_intra=0 / bframes=8 / b_pyramid=2 / b_adapt=2 / b_bias=0 / direct=3 / weightb=1 / open_gop=0 / weightp=2 / keyint=250 / keyint_min=25 / scenecut=40 / intra_refresh=0 / rc_lookahead=50 / rc=crf / mbtree=0 / crf=15.8 / qcomp=0.75 / qpmin=0 / qpmax=69 / qpstep=4 / vbv_maxrate=62500 / vbv_bufsize=78125 / crf_max=0.0 / nal_hrd=none / ip_ratio=1.40 / pb_ratio=1.30 / aq=1:0.85
Язык : English
Default : Да
Forced : Нет

Аудио #1
Идентификатор : 2
Формат : AC-3
Формат/Информация : Audio Coding 3
Расширение режима : CM (complete main)
Параметр Endianness формата : Big
Идентификатор кодека : A_AC3
Продолжительность : 1 ч. 46 м.
Вид битрейта : Постоянный
Битрейт : 192 Кбит/сек
Каналы : 2 канала
Расположение каналов : Front: L R
Частота : 48,0 КГц
Битовая глубина : 16 бит
Метод сжатия : С потерями
Размер потока : 341 Мбайт (3%)
Заголовок : OLL
Язык : Russian
Default : Да
Forced : Да

Аудио #2
Идентификатор : 3
Формат : AC-3
Формат/Информация : Audio Coding 3
Расширение режима : CM (complete main)
Параметр Endianness формата : Big
Идентификатор кодека : A_AC3
Продолжительность : 1 ч. 46 м.
Вид битрейта : Постоянный
Битрейт : 448 Кбит/сек
Каналы : 6 каналов
Расположение каналов : Front: L C R, Side: L R, LFE
Частота : 48,0 КГц
Битовая глубина : 16 бит
Метод сжатия : С потерями
Размер потока : 341 Мбайт (3%)
Заголовок : HamsterStudio
Язык : Russian
Default : Нет
Forced : Нет

Аудио #3
Идентификатор : 4
Формат : AC-3
Формат/Информация : Audio Coding 3
Расширение режима : CM (complete main)
Параметр Endianness формата : Big
Идентификатор кодека : A_AC3
Продолжительность : 1 ч. 46 м.
Вид битрейта : Постоянный
Битрейт : 640 Кбит/сек
Каналы : 6 каналов
Расположение каналов : Front: L C R, Side: L R, LFE
Частота : 48,0 КГц
Битовая глубина : 16 бит
Метод сжатия : С потерями
Размер потока : 488 Мбайт (4%)
Язык : English
Default : Нет
Forced : Нет

Текст #1
Идентификатор : 5
Формат : UTF-8
Идентификатор кодека : S_TEXT/UTF8
Идентификатор кодека/Информация : UTF-8 Plain Text
Заголовок : kon2011
Язык : Russian
Default : Нет
Forced : Нет

Текст #2
Идентификатор : 6
Формат : UTF-8
Идентификатор кодека : S_TEXT/UTF8
Идентификатор кодека/Информация : UTF-8 Plain Text
Язык : English
Default : Нет
Forced : Нет

Меню
00:00:00.000 : en:00:00:00.000
00:08:40.920 : en:00:08:40.920
00:16:51.640 : en:00:16:51.640
00:27:39.880 : en:00:27:39.880
00:33:00.160 : en:00:33:00.160
00:40:15.240 : en:00:40:15.240
00:51:05.440 : en:00:51:05.440
00:59:20.960 : en:00:59:20.960
01:06:43.880 : en:01:06:43.880
01:12:25.560 : en:01:12:25.560
01:23:52.800 : en:01:23:52.800
01:28:40.680 : en:01:28:40.680
01:41:50.160 : en:01:41:50.160
pb.wtf



Скачать Ночной поезд до Лиссабона через торрент http://6.firepic.org/6/images/2014-02/01/hf2sfysen0ej.jpg Скачать фильм Ночной поезд до Лиссабона через торрент бесплантно в хорошем качестве Описание: Раймунд Григориус, швейцарский профессор древних языков, спасает португальскую женщину от самоубийства и находит у нее книгу, ... 10 10 4
Info! Золотая раздача, скачанное не засчитывается.
Торрент: Зарегистрирован [2014-02-01 14:41] · скачан: 70 раз
Статус: √ проверено
Размер: 11.34 GB
Как cкачать? Как скачать Ночной поезд до Лиссабона через торрент | qTorrent

% Раздел Тема Автор DL S | L
Фильмы [HD 720p, 1080p] (Хороший звук DUB, MVO) [ 5.03 GB ] Ночной поезд до Лиссабона / Night Train to Lisbon [2013 BDRip 720p MVO DVO Original] кэп Скачать
1 | 0

28-11-2019 20:33  

Отключить всю рекламу на сайте

    Дорогой пользователь! Огромная просьба, поблагодарите релизера, оцените раздачу и оставьте свои комментарий, если Вы скачали Ночной поезд до Лиссабона через торрент бесплатно! Внесите свою лепту в развитие PiratBit!
    Комментировать посты могут только пользователи прошедшие не сложную регистрацию
    Показать сообщения:    

    Ночной поезд до Лиссабона через торрент
    Скачать бесплатно Ночной поезд до Лиссабона
    Ночной поезд до Лиссабона скачать торрент
    Ночной поезд до Лиссабона смотреть онлайн
    Cкачать фильм Ночной поезд до Лиссабона бесплатно
    Ночной поезд до Лиссабона скачать торрент в хорошем качестве
    Ночной поезд до Лиссабона смотреть онлайн бесплатно в хорошем качестве


    Вы не можете начинать темы
    Вы не можете отвечать на сообщения
    Вы не можете редактировать свои сообщения
    Вы не можете удалять свои сообщения
    Вы не можете голосовать в опросах
    Вы не можете прикреплять файлы к сообщениям
    Вы можете скачивать файлы