2 сезон

iTunes

1 сезон

1

iTunes

iTunes

iTunes

1 сезон

RePack

30

ИГРА 18+

pack

ВАЖНО

!!Акция!!

Alien_RageХит недели

RePack

MK11
pack

Забери бонус

RePack

jed

!!Акция!!

Alien_Rage

RePack

fifa19

RePack

Assassins Creed: Odyssey

RePack

NEED FOR SPEED™ PAYBACK

4 сезон

9 сезон

Бесстыжие 9 сезон

Все сериалы

все сериалы на PB.wtf

RePack

FAR CRY 5
  

Ночной поезд до Лиссабона / Night Train to Lisbon (Билле Аугуст) [2013 г., Триллер, мелодрама, детектив, BDRip 720p, MVO, DVO, Original] pb.wtf

Ночной поезд до Лиссабона через торрент pb.wtf

Размер: 5.03 GB | Добавлен: 6 лет 8 мес. назад | Торрент скачан:107 раз
Скачать  

01-02-2014 16:23 Ночной поезд до Лиссабона Скачать торрент  

Ночной поезд до Лиссабона / Night Train to Lisbon

Год выпуска: 2013
Страна: Германия, Швейцария, Португалия
Выпущено: C-Films AG, Cinemate, Efish Entertainment
Жанр: Триллер, мелодрама, детектив
Продолжительность: 01:46:30
Перевод: Профессиональный многоголосый + Любительский двухголосый
Субтитры: Русские, английские

Режиссер: Билле Аугуст
Продюссер: Дэниэл Баур, Эрик Фишер, Кевин Скотт Фрайкс
Сценарий: Грег Лэттер, Ульрих Херрманн, Паскаль Мерсье
Премьера в мире: 13 февраля 2013

IMDB 6.80 (4763)


В ролях: Джереми Айронс, Мелани Лоран, Джек Хьюстон, Мартина Гедек, Лена Улин, Аугуст Диль, Бруно Ганц, Кристофер Ли, Шарлотта Рэмплинг, Том Кортни

Описание: Раймунд Григориус, швейцарский профессор древних языков, спасает португальскую женщину от самоубийства и находит у нее книгу, написанную португальским автором Амадеу ди Праду, о сопротивлении диктаторскому режиму Антонио ди Оливейра Салазара. Полностью поглощенный книгой главный герой посвящает свою жизнь изучению португальской истории в целом, и в частности работам Амадеу ди Праду.

Качество: BDRip 720p
Формат: MKV
Видео кодек: AVC
Аудио кодек: AC3
Видео: MPEG-4 AVC, 5236 Кбит/с, 1280x688, 25.000 fps, (Bits/Pixel): 0.238
Аудио#1: Russian: AC3, 2 ch, 448 Kbps, 48.0 KHz |MVO-online movies - OLL|
Аудио#2: Russian: AC3, 6 ch, 448 Кбит/с, 48.0 KHz |DVO-HamsterStudio|
Аудио#3: English: AC3, 6 ch, 640 Кбит/с, 48.0 KHz |Original|
General
Unique ID : 213433588390460576869984067153421215260 (0xA091D05BE053F4C09FFFAAF49541261C)
Complete name : /home/sb753/files/Night.Train.To.Lisbon.2013.Blu.Ray.720p.CINEMANIA.mkv
Format : Matroska
Format version : Version 4 / Version 2
File size : 5.03 GiB
Duration : 1h 46mn
Overall bit rate : 6 759 Kbps
Movie name : Release Group CINEMANIA
Encoded date : UTC 2014-01-31 22:10:29
Writing application : mkvmerge v6.7.0 ('Back to the Ground') 64bit built on Jan 8 2014 15:10:52
Writing library : libebml v1.3.0 + libmatroska v1.4.1

Video
ID : 1
Format : AVC
Format/Info : Advanced Video Codec
Format profile : High@L4.1
Format settings, CABAC : Yes
Format settings, ReFrames : 9 frames
Codec ID : V_MPEG4/ISO/AVC
Duration : 1h 46mn
Bit rate : 5 236 Kbps
Width : 1 280 pixels
Height : 688 pixels
Display aspect ratio : 1.85:1
Frame rate : 25.000 fps
Color space : YUV
Chroma subsampling : 4:2:0
Bit depth : 8 bits
Scan type : Progressive
Bits/(Pixel*Frame) : 0.238
Stream size : 3.79 GiB (75%)
Title : Release Group CINEMANIA
Writing library : x264 core 133 r2334 a3ac64b
Encoding settings : cabac=1 / ref=9 / deblock=1:-3:-3 / analyse=0x3:0x113 / me=hex / subme=9 / psy=1 / psy_rd=1.00:0.00 / mixed_ref=1 / me_range=16 / chroma_me=1 / trellis=1 / 8x8dct=1 / cqm=0 / deadzone=21,11 / fast_pskip=1 / chroma_qp_offset=-2 / threads=6 / lookahead_threads=1 / sliced_threads=0 / nr=0 / decimate=1 / interlaced=0 / bluray_compat=0 / constrained_intra=0 / bframes=3 / b_pyramid=2 / b_adapt=1 / b_bias=0 / direct=1 / weightb=1 / open_gop=0 / weightp=2 / keyint=250 / keyint_min=25 / scenecut=40 / intra_refresh=0 / rc_lookahead=40 / rc=2pass / mbtree=1 / bitrate=5236 / ratetol=1.0 / qcomp=0.60 / qpmin=10 / qpmax=51 / qpstep=4 / cplxblur=20.0 / qblur=0.5 / vbv_maxrate=50000 / vbv_bufsize=50000 / nal_hrd=none / ip_ratio=1.40 / aq=1:1.00
Language : English
Default : Yes
Forced : No

Audio #1
ID : 2
Format : AC-3
Format/Info : Audio Coding 3
Mode extension : CM (complete main)
Format settings, Endianness : Big
Codec ID : A_AC3
Duration : 1h 46mn
Bit rate mode : Constant
Bit rate : 448 Kbps
Channel(s) : 2 channels
Channel positions : Front: L R
Sampling rate : 48.0 KHz
Bit depth : 16 bits
Compression mode : Lossy
Stream size : 341 MiB (7%)
Title : OLL
Language : Russian
Default : Yes
Forced : Yes

Audio #2
ID : 3
Format : AC-3
Format/Info : Audio Coding 3
Mode extension : CM (complete main)
Format settings, Endianness : Big
Codec ID : A_AC3
Duration : 1h 46mn
Bit rate mode : Constant
Bit rate : 448 Kbps
Channel(s) : 6 channels
Channel positions : Front: L C R, Side: L R, LFE
Sampling rate : 48.0 KHz
Bit depth : 16 bits
Compression mode : Lossy
Stream size : 341 MiB (7%)
Title : HamsterStudio
Language : Russian
Default : No
Forced : No

Audio #3
ID : 4
Format : AC-3
Format/Info : Audio Coding 3
Mode extension : CM (complete main)
Format settings, Endianness : Big
Codec ID : A_AC3
Duration : 1h 46mn
Bit rate mode : Constant
Bit rate : 640 Kbps
Channel(s) : 6 channels
Channel positions : Front: L C R, Side: L R, LFE
Sampling rate : 48.0 KHz
Bit depth : 16 bits
Compression mode : Lossy
Stream size : 488 MiB (9%)
Language : English
Default : No
Forced : No

Text #1
ID : 5
Format : UTF-8
Codec ID : S_TEXT/UTF8
Codec ID/Info : UTF-8 Plain Text
Title : kon2011
Language : Russian
Default : No
Forced : No

Text #2
ID : 6
Format : UTF-8
Codec ID : S_TEXT/UTF8
Codec ID/Info : UTF-8 Plain Text
Language : English
Default : No
Forced : No
pb.wtf



Скачать Ночной поезд до Лиссабона через торрент http://i3.imageban.ru/out/2014/02/01/f7ea72bd71867888971653d827ae87be.png Скачать фильм Ночной поезд до Лиссабона через торрент бесплантно в хорошем качестве Описание: Раймунд Григориус, швейцарский профессор древних языков, спасает португальскую женщину от самоубийства и находит у нее книгу, ... 9 10 5
Info! Золотая раздача, скачанное не засчитывается.
Торрент: Зарегистрирован [2014-02-01 16:23] · скачан: 107 раз
Статус: √ проверено
Размер: 5.03 GB
Как cкачать? Как скачать Ночной поезд до Лиссабона через торрент | qTorrent

% Раздел Тема Автор DL S | L
Фильмы [HD 720p, 1080p] (Хороший звук DUB, MVO) [ 11.34 GB ] Ночной поезд до Лиссабона / Night Train To Lisbon [2013 BDRip 1080p]MVO+DVO sdolotov Скачать
1 | 0
Фильмы 2013 [DVDrip, WEB-DLRip, HDrip] [ 1.36 GB ] Ночной поезд до Лиссабона / Night Train to Lisbon [2013 HDRip многоголосый] кэп Скачать
1 | 0

28-11-2019 20:33  

Отключить всю рекламу на сайте

22-02-2014 20:41 Ночной поезд до Лиссабона Скачать торрент  

Триллер, мелодрама, детектив: триллера нет, детектива нет, вялотекущая мЫлодрама есть, весь фильм!pb.wtf



02-03-2014 20:42 Ночной поезд до Лиссабона Скачать торрент  

Нудятина страшнаяpb.wtf



    Дорогой пользователь! Огромная просьба, поблагодарите релизера, оцените раздачу и оставьте свои комментарий, если Вы скачали Ночной поезд до Лиссабона через торрент бесплатно! Внесите свою лепту в развитие PiratBit!
    Комментировать посты могут только пользователи прошедшие не сложную регистрацию
    Показать сообщения:    

    Ночной поезд до Лиссабона через торрент
    Скачать бесплатно Ночной поезд до Лиссабона
    Ночной поезд до Лиссабона скачать торрент
    Ночной поезд до Лиссабона смотреть онлайн
    Cкачать фильм Ночной поезд до Лиссабона бесплатно
    Ночной поезд до Лиссабона скачать торрент в хорошем качестве
    Ночной поезд до Лиссабона смотреть онлайн бесплатно в хорошем качестве


    Вы не можете начинать темы
    Вы не можете отвечать на сообщения
    Вы не можете редактировать свои сообщения
    Вы не можете удалять свои сообщения
    Вы не можете голосовать в опросах
    Вы не можете прикреплять файлы к сообщениям
    Вы можете скачивать файлы