2 сезон

iTunes

MVO

1

2 сезон

iTunes

iTunes

1 сезон

RePack

30

Новинка

ВАЖНО

ИГРА 18+

pack

RePack

MK11
pack

Легкие деньги

RePack

jed

RePack

fifa19

RePack

RDR2

RePack

NEED FOR SPEED™ PAYBACK

4 сезон

9 сезон

Бесстыжие 9 сезон

Все сериалы

все сериалы на PB.wtf

RePack

FAR CRY 5

Anonymous, доброй ночи, мы не успеваем собрать деньги на оплату серверов за декабрь и январь, помогите нам пожалуйста в это трудное время. В качестве благодарности мы отключим Вам всю рекламу на сайте (укажите свой ник в строку Ваше имя)!

×
  
Magnet ссылка

Элвис Пресли / Elvis Presley Forever [2007 г., Rock'N'Roll, DVDRip] pb.wtf

Элвис Пресли через торрент pb.wtf

Размер: 700 MB | Добавлен: 6 лет 11 мес. назад | Торрент скачан:33 раза
Скачать  

02-02-2014 12:31 Элвис Пресли Скачать торрент  

Элвис Пресли
Год выпуска: 2007
Страна: США Power Station GmbH
Жанр: Rock'N'Roll,
Продолжительность: 01:21:13
Перевод: Оригинал

В ролях: Элвис Пресли

Описание: Концертние выступления Элвиса Пресли в разные годы.
01. Introduction
02. Burning Love
03. I Got A Woman
04. That's All Right Mama
05. Something
06. Hound Dog
07. Baby Waht You Want Me To Do
08. You Gave Me A Mountain
09. Heartbreak Hotel
10. Blue Suede Shoes
11. Steamroller Blues
12. Love Me Tender
13. Lawdy Miss Clawdy
14. My Way
15. I Can't Stop Loving You
16. Are You Lonesome Tonight?
17. Love Me
18. Just Pretend
19. Medley: When My Blue Moon Turns On Gold Again / Blue Christmas
20. Johnny B. Goode
21. The Wonder Of You
22. Tryin' To Get To You
23. It's Over
24. In The Ghetto
25. One Night
26. Heavenly Luck / Up In Heaven
Качество: DVDRip
Формат: AVI
Видео кодек: XviD
Аудио кодек: MP3
Видео: Xvid 608x400, 25.00fps, 1 072 Kbps
Аудио: MPEG Audio Layer 3, 48000Hz, stereo, 119kbps
Релиз от: lug30

General
Complete name : D:Для ЖениElvis Presley Forever.avi
Format : AVI
Format/Info : Audio Video Interleave
File size : 700 MiB
Duration : 1h 21mn
Overall bit rate mode : Variable
Overall bit rate : 1 205 Kbps
Writing application : VirtualDubMod 1.5.4.1 (build 2178/release)
Writing library : VirtualDubMod build 2178/release

Video
ID : 0
Format : MPEG-4 Visual
Format profile : Advanced Simple@L5
Format settings, BVOP : 1
Format settings, QPel : No
Format settings, GMC : No warppoints
Format settings, Matrix : Custom
Codec ID : XVID
Codec ID/Hint : XviD
Duration : 1h 21mn
Bit rate : 1 072 Kbps
Width : 608 pixels
Height : 400 pixels
Display aspect ratio : 3:2
Frame rate : 25.000 fps
Color space : YUV
Chroma subsampling : 4:2:0
Bit depth : 8 bits
Scan type : Progressive
Compression mode : Lossy
Bits/(Pixel*Frame) : 0.176
Stream size : 623 MiB (89%)
Writing library : XviD 73

Audio
ID : 1
Format : MPEG Audio
Format version : Version 1
Format profile : Layer 3
Mode : Joint stereo
Mode extension : MS Stereo
Codec ID : 55
Codec ID/Hint : MP3
Duration : 1h 21mn
Bit rate mode : Variable
Bit rate : 120 Kbps
Nominal bit rate : 128 Kbps
Channel(s) : 2 channels
Sampling rate : 48.0 KHz
Compression mode : Lossy
Stream size : 69.7 MiB (10%)
Alignment : Aligned on interleaves
Interleave, duration : 24 ms (0.60 video frame)
Interleave, preload duration : 153 ms
Writing library : LAME3.98r
Encoding settings : -m j -V 4 -q 2 -lowpass 17 --abr 128
Language : English

pb.wtf



Скачать Элвис Пресли через торрент http://pic.kartinco.top/images/6/xavoh.jpg Скачать фильм Элвис Пресли через торрент бесплантно в хорошем качестве Описание: Концертние выступления Элвиса Пресли в разные годы. Introduction Burning Love I Got A Woman That's All Right Mama ... 10 10 6
Info! Золотая раздача, скачанное не засчитывается.
Торрент: Зарегистрирован [2014-02-02 12:31] · скачан: 33 раз
Статус: √ проверено
Размер: 700 MB
Как cкачать? Как скачать Элвис Пресли через торрент | UTorrent

28-11-2019 20:33  

Отключить всю рекламу на сайте

    Дорогой пользователь! Огромная просьба, поблагодарите релизера, оцените раздачу и оставьте свои комментарий, если Вы скачали Элвис Пресли через торрент бесплатно! Внесите свою лепту в развитие PiratBit!
    Комментировать посты могут только пользователи прошедшие не сложную регистрацию
    Показать сообщения:    

    Элвис Пресли через торрент
    Скачать бесплатно Элвис Пресли
    Элвис Пресли скачать торрент
    Элвис Пресли смотреть онлайн
    Cкачать фильм Элвис Пресли бесплатно
    Элвис Пресли скачать торрент в хорошем качестве
    Элвис Пресли смотреть онлайн бесплатно в хорошем качестве


    Вы не можете начинать темы
    Вы не можете отвечать на сообщения
    Вы не можете редактировать свои сообщения
    Вы не можете удалять свои сообщения
    Вы не можете голосовать в опросах
    Вы не можете прикреплять файлы к сообщениям
    Вы можете скачивать файлы