Присоединяйтесь к нам в Telegram!, здесь всегда актуальный адрес сайта, оперативная поддержка и многое другое!!

>

5.9

iTunes

7.4

iTunes

9.4

1 сезон

1

7.4

2 сезон

7.2

iTunes

7.3

1 сезон

13

6.1

iTunes

8.3

GOG

30

ULTIMATE

pack

9.9

Лицензия

ВАЖНО

ИГРА 18+

pack

7.3

RePack

MK11

7.7

RePack

jed

7.8

RePack

fifa19

8.5

RePack

RDR2

RePack

NEED FOR SPEED™ PAYBACK

5 сезон

9 сезон

Бесстыжие 9 сезон

Все сериалы

все сериалы на PB.wtf

RePack

FAR CRY 5

Anonymous, доброй ночи, мы катастрофически не успеваем собрать деньги на оплату серверов, помогите нам пожалуйста 5,10,15р., для нас важна любая помощь . В качестве благодарности мы отключим Вам всю рекламу на сайте (укажите свой ник в строку Ваше имя)!

×
  
Magnet ссылка

Элвис Пресли (фильм второй) / Elvis Presley - The Ed Sullivan Show [2010 г., Rock'N'Roll, DVDRip] pb.wtf

Элвис Пресли через торрент pb.wtf

Размер: 699 MB | Добавлен: 7 лет 9 мес. назад | Торрент скачан:25 раз
Смотреть онлайн Элвис Пресли | Скачать    Ребята, помогите собрать деньги на оплату серверов!!!

02-02-2014 14:09 Элвис Пресли Скачать торрент  

Элвис Пресли (фильм второй)
Год выпуска: 2010
Страна: США Image Entertaiment
Жанр: Rock'N'Roll
Продолжительность: 00:46:37
Перевод: Оригинал

В ролях: Элвис Пресли

Описание: Появившись впервые на шоу 9 сентября 1956 года, Элвис буквально шокировал нацию своим невероятным голосом, дикими, мгновенно вошедшими в моду, движениями и безумной энергией, ломая все рекорды популярности, притягивая к экранам телевизоров более 60 миллионов человек. Пресли вернулся 28 октября того же года, продолжая вызывать дикие вопли восторга такими хитами, как:"Don't be cruel" и "Hound Dog". Фактически, эти безбашенные исполнения были настолько взрывными, что Элвис снимался в этих шоу постоянно вплоть до его финального выступления на шоу Салливана 6 января 1957 года.
September 9, 1956
01. Don't Be Cruel 02:50
02. Love Me Tender 03:49
03. Ready Teddy 02:58
04. Hound Dog 00:52

October 28, 1956
05. Don't Be Cruel 02:24
06. Love Me Tender 03:45
07. Love Me 03:49
08. Hound Dog 03:42

January 6, 1957
09. Medley: Hound Dog/Love Me Tender/Heartbreak Hotel 03:20
10. Don't Be Cruel 02:52
11. Too Much 03:00
12. When My Blue Moon Turns To Gold Again 02:55
13. Peace In The Valley 03:38
Качество: DVDRip
Формат: AVI
Видео кодек: XviD
Аудио кодек: MP3
Видео: Xvid, 592x448, 29.97fps, 1 971 Kbps
Аудио: MPEG Audio Layer 3, 48000Hz, stereo, 112kbps
Релиз от: lug30

General
Complete name : D:Для ЖениElvis.Presley.The.Ed.Sullivan.Show.2010.NTSC.avi
Format : AVI
Format/Info : Audio Video Interleave
File size : 699 MiB
Duration : 46mn 37s
Overall bit rate mode : Variable
Overall bit rate : 2 097 Kbps
Writing application : VirtualDubMod 1.5.4.1 (build 2178/release)
Writing library : VirtualDubMod build 2178/release

Video
ID : 0
Format : MPEG-4 Visual
Format profile : Advanced Simple@L5
Format settings, BVOP : 1
Format settings, QPel : No
Format settings, GMC : No warppoints
Format settings, Matrix : Custom
Codec ID : XVID
Codec ID/Hint : XviD
Duration : 46mn 37s
Bit rate : 1 971 Kbps
Width : 592 pixels
Height : 448 pixels
Display aspect ratio : 4:3
Frame rate : 29.970 fps
Color space : YUV
Chroma subsampling : 4:2:0
Bit depth : 8 bits
Scan type : Progressive
Compression mode : Lossy
Bits/(Pixel*Frame) : 0.248
Stream size : 657 MiB (94%)
Writing library : XviD 73

Audio
ID : 1
Format : MPEG Audio
Format version : Version 1
Format profile : Layer 3
Mode : Joint stereo
Mode extension : MS Stereo
Codec ID : 55
Codec ID/Hint : MP3
Duration : 46mn 37s
Bit rate mode : Variable
Bit rate : 112 Kbps
Nominal bit rate : 128 Kbps
Channel(s) : 2 channels
Sampling rate : 48.0 KHz
Compression mode : Lossy
Stream size : 37.4 MiB (5%)
Alignment : Aligned on interleaves
Interleave, duration : 24 ms (0.72 video frame)
Interleave, preload duration : 164 ms
Writing library : LAME3.98r
Encoding settings : -m j -V 4 -q 2 -lowpass 17 --abr 128
Language : English

pb.wtf



Скачать Элвис Пресли через торрент https://pic1.kartinco.top/images/61/kenrr.jpg Скачать, смотреть онлайн Элвис Пресли бесплантно в хорошем качестве Описание: Появившись впервые на шоу 9 сентября 1956 года, Элвис буквально шокировал нацию своим невероятным голосом, дикими, мгновенно ... 10 10 3
Info! Золотая раздача, скачанное не засчитывается.
Торрент: Зарегистрирован [2014-02-02 14:09] · скачан: 25 раз
Статус: √ проверено
Размер: 699 MB
Как cкачать? Как скачать Элвис Пресли через торрент | UTorrent

28-11-2019 20:33  

Отключить всю рекламу на сайте

    Дорогой пользователь! Огромная просьба, поблагодарите релизера, оцените раздачу и оставьте свои комментарий, если Вы скачали Элвис Пресли через торрент бесплатно!
    Комментировать посты могут только пользователи прошедшие не сложную регистрацию
    Показать сообщения:    

    Элвис Пресли через торрент
    Скачать бесплатно Элвис Пресли
    Элвис Пресли скачать торрент
    Элвис Пресли смотреть онлайн
    Cкачать фильм Элвис Пресли бесплатно
    Элвис Пресли скачать торрент в хорошем качестве
    Элвис Пресли смотреть онлайн бесплатно в хорошем качестве


    Вы не можете начинать темы
    Вы не можете отвечать на сообщения
    Вы не можете редактировать свои сообщения
    Вы не можете удалять свои сообщения
    Вы не можете голосовать в опросах
    Вы не можете прикреплять файлы к сообщениям
    Вы можете скачивать файлы