1 сезон

3 сезон

iTunes

1

iTunes

MVO

iTunes

13

1 сезон

RePack

30

Deluxe

pack

Лицензия

ВАЖНО

ИГРА 18+

pack

RePack

MK11

RePack

jed

RePack

fifa19

RePack

RDR2

RePack

NEED FOR SPEED™ PAYBACK

4 сезон

9 сезон

Бесстыжие 9 сезон

Все сериалы

все сериалы на PB.wtf

RePack

FAR CRY 5

Anonymous, добрый вечер, мы катастрофически не успеваем собрать деньги на оплату серверов, помогите нам пожалуйста 5,10,15р., для нас важна любая помощь . В качестве благодарности мы отключим Вам всю рекламу на сайте (укажите свой ник в строку Ваше имя)!

×
  
Magnet ссылка

Охотники на демонов / Hellbenders (Дж.Т. Петти / J.T. Petty) [2013, ужасы, триллер, комедия, DVD5] R5 pb.wtf

Охотники на демонов через торрент pb.wtf

Размер: 3.8 GB | Добавлен: 7 лет 5 мес. назад | Торрент скачан:65 раз
Скачать  

02-02-2014 19:06 Охотники на демонов Скачать торрент  


Охотники на демонов / Hellbenders
«Нечистая сила в шоке»
Страна: США
Студия: Ambush Entertainment, Circle of Confusion, Off Hollywood Pictures
Жанр: ужасы, триллер, комедия
Год выпуска: 2013
Мировая премьера: 9 сентября 2012
Российская премьера: 31 октября 2013, 3D
Дата выхода DVD: 23 января 2014
Продолжительность: 01:23:09
Перевод: Профессиональный (дублированный) [Лицензия]
Cубтитры: нет
Оригинальная аудиодорожка: нет
Режиссер: Дж.Т. Петти / J.T. Petty
В ролях: Клифтон Коллинз мл., Клэнси Браун, Андре Ройо, Робин Рикун, Макон Блэр, Стивен Геведон, Ларри Фесенден, Дэн Фоглер, Эдоардо Баллерини, Саманта Бак...
Описание: Эксцентричная комедия о команде распутных экзорцистов, изгоняющих нечистую силу, которая жаждет ввергнуть Землю в хаос. Члены Ордена используют любую возможность согрешить для того, чтобы привлечь внимание демонов. Их план прост и эффективен: они заставляют демона вселиться в одного из них, а потом берут его тепленьким. Но однажды они сталкиваются кое с кем посильнее, чем мелкие бесы. Сам Сатана решает бросить им вызов! Охотникам приходится впасть во все тяжкие и отправить дьявола обратно в Ад!
Бонусы: нет

Релиз группы:
Качество: DVD5 R5
Формат: DVD-Video
Видео кодек: MPEG2
Аудио кодек: AC3
Видео: PAL 16:9 (720x576(0.560)) MPEG Video, 25,000 кадр/сек, 5804 Кбит/сек
Аудио: Russian (Dolby AC3, 6 ch) 256 Кбит/сек, 48,0 КГц



Title: Ohotniki.na.demonov.2012.DVD5
Size: 3.80 Gb ( 3 981 296,00 KBytes ) - DVD-5
Enabled regions: 1, 2, 3, 4, 5, 6, 7, 8

VTS_01 :
Play Length: 00:00:19
Video: PAL 16:9 (720x576) VBR, Auto Pan&Scan, Auto Letterboxed
Audio:
Not specified (Dolby AC3, 2 ch)

VTS_02 :
Play Length: 01:23:09
Video: PAL 16:9 (720x576) VBR, Auto Pan&Scan, Auto Letterboxed
Audio:
Not specified (Dolby AC3, 6 ch)

* Menus Information *

VIDEO_TS Menu
Video:
PAL 16:9 (720x576) VBR
Auto Pan&Scan, Auto Letterboxed
Russian Language Unit :
Title Menu

VTS_01 Menu
Video:
PAL 16:9 (720x576) VBR
Auto Pan&Scan, Auto Letterboxed
Audio:
Not specified (Dolby AC3, 6 ch)
Russian Language Unit :
Root Menu

VTS_02 Menu
Video:
PAL 4:3 (720x576) VBR
Russian Language Unit :
Root Menu
Общее
Полное имя : K:Новинки 2013Ohotniki.na.demonov.2012.DVD5VIDEO_TSVTS_02_1.VOB
Формат : MPEG-PS
Размер файла : 1024 Мбайт
Продолжительность : 23 м.
Режим общего битрейта : Переменный
Общий поток : 6183 Кбит/сек

Видео
Идентификатор : 224 (0xE0)
Формат : MPEG Video
Версия формата : Version 2
Профиль формата : Main@Main
Параметр BVOP формата : Да
Параметр матрицы формата : Выборочная
Параметр GOP формата : Variable
Продолжительность : 23 м.
Вид битрейта : Переменный
Битрейт : 5804 Кбит/сек
Максимальный битрейт : 9000 Кбит/сек
Ширина : 720 пикселей
Высота : 576 пикселей
Соотношение сторон : 16:9
Частота кадров : 25,000 кадров/сек
Стандарт вещания : PAL
Цветовое пространство : YUV
Субдискретизация насыщенности : 4:2:0
Битовая глубина : 8 бит
Тип развёртки : Чересстрочная
Порядок развёртки : Верхнее поле первое
Метод сжатия : С потерями
Бит/(Пиксели*Кадры) : 0.560
Временной код первого кадра : 00:00:00:00
Оригинал временного кода : Group of pictures header
Размер потока : 961 Мбайт (94%)

Аудио
Идентификатор : 189 (0xBD)-128 (0x80)
Формат : AC-3
Формат/Информация : Audio Coding 3
Расширение режима : CM (complete main)
Параметр Endianness формата : Big
Режим смешивания : DVD-Video
Продолжительность : 23 м.
Вид битрейта : Постоянный
Битрейт : 256 Кбит/сек
Каналы : 6 каналов
Расположение каналов : Front: L C R, Side: L R, LFE
Частота : 48,0 КГц
Битовая глубина : 16 бит
Метод сжатия : С потерями
Размер потока : 42,4 Мбайт (4%)










pb.wtf



Скачать Охотники на демонов через торрент http://i58.fastpic.ru/big/2014/0202/62/fde80ea54683365f7a5ac75440b36162.jpg Скачать фильм Охотники на демонов через торрент бесплантно в хорошем качестве Описание: Эксцентричная комедия о команде распутных экзорцистов, изгоняющих нечистую силу, которая жаждет ввергнуть Землю в хаос. Члены ... 8.7 10 7
Info! Золотая раздача, скачанное не засчитывается.
Торрент: Зарегистрирован [2014-02-02 19:06] · скачан: 65 раз
Статус: √ проверено
Размер: 3.8 GB
Как cкачать? Как скачать Охотники на демонов через торрент | UTorrent

28-11-2019 20:33  

Отключить всю рекламу на сайте

02-02-2014 19:35 Охотники на демонов Скачать торрент  

voovaz
Как фильм ,стоит смотреть?pb.wtf



02-02-2014 20:05 Охотники на демонов Скачать торрент  

Aligatorcool85 писал(а):

voovaz
Как фильм ,стоит смотреть?

Бредятина редкостная,я не смог посмотреть,промотал и выключилpb.wtf



02-02-2014 20:59 Охотники на демонов Скачать торрент  

voovaz
Поддерживаю)pb.wtf



    Дорогой пользователь! Огромная просьба, поблагодарите релизера, оцените раздачу и оставьте свои комментарий, если Вы скачали Охотники на демонов через торрент бесплатно! Внесите свою лепту в развитие PiratBit!
    Комментировать посты могут только пользователи прошедшие не сложную регистрацию
    Показать сообщения:    

    Охотники на демонов через торрент
    Скачать бесплатно Охотники на демонов
    Охотники на демонов скачать торрент
    Охотники на демонов смотреть онлайн
    Cкачать фильм Охотники на демонов бесплатно
    Охотники на демонов скачать торрент в хорошем качестве
    Охотники на демонов смотреть онлайн бесплатно в хорошем качестве


    Вы не можете начинать темы
    Вы не можете отвечать на сообщения
    Вы не можете редактировать свои сообщения
    Вы не можете удалять свои сообщения
    Вы не можете голосовать в опросах
    Вы не можете прикреплять файлы к сообщениям
    Вы можете скачивать файлы