2 сезон

iTunes

MVO

1

2 сезон

iTunes

iTunes

1 сезон

RePack

30

Ultimate

ВАЖНО

ИГРА 18+

pack

RePack

MK11
pack

Легкие деньги

RePack

jed

RePack

fifa19

RePack

RDR2

RePack

NEED FOR SPEED™ PAYBACK

4 сезон

9 сезон

Бесстыжие 9 сезон

Все сериалы

все сериалы на PB.wtf

RePack

FAR CRY 5

Anonymous, добрый вечер, мы не успеваем собрать деньги на оплату серверов за декабрь и январь, помогите нам пожалуйста в это трудное время. В качестве благодарности мы отключим Вам всю рекламу на сайте (укажите свой ник в строку Ваше имя)!

×
  
Magnet ссылка

Советник / The Counselor (Ридли Скотт / Ridley Scott) [2013 г., Триллер, драма, криминал, BDRip-AVC] [Theatrical] Dub (BD EUR) + Original + Sub (rus., ukr., eng) pb.wtf

Советник через торрент pb.wtf

Размер: 2.19 GB | Добавлен: 6 лет 11 мес. назад | Торрент скачан:739 раз
Скачать  

03-02-2014 04:48 Советник Скачать торрент  

Советник / The Counselor
Год выпуска: 2013
Страна: США, Великобритания / Chockstone Pictures, Kanzaman S.A., Nick Wechsler Productions, Scott Free Productions, Translux
Жанр: Триллер, драма, криминал,
Продолжительность: 01:57:14
Перевод: Дубляж [Лицензия]
Субтитры: Русские, украинские, английские (полные + SDH)

Режиссер: Ридли Скотт / Ridley Scott



В ролях: Майкл Фассбендер, Пенелопа Крус, Кэмерон Диаз, Хавьер Бардем, Брэд Питт, Бруно Ганц, Рози Перес, Тоби Кеббелл, Эмма Ригби, Эдгар Рамирес,

Описание: Успешный адвокат, стоящий практически на вершине успеха и на пороге собственной свадьбы, из любопытства и, конечно, ради денег соглашается на предложение своего давнего знакомого, имеющего тесные связи с преступным миром, перевезти из Мексики в США партию кокаина стоимостью 20 млн. долл.

Качество: BDRip-AVC
Формат: MKV
Видео кодек: H.264
Аудио кодек: AC3
Видео: 1056x440 (2,40:1), 23,976 fps, 1771 Кbps, 0.159 bit/pixel
Аудио#1: 48 kHz, AC3 Dolby Digital, 3/2 (L,C,R,l,r) + LFE ch, 448.00 kbps | RUS
Аудио#2: 48 kHz, AC3 Dolby Digital, 3/2 (L,C,R,l,r) + LFE ch, 448.00 kbps | ENG

Релиз группы:
Автор рипа: potroks





Общее
Уникальный идентификатор : 246224412769311360367014056637410127692 (0xB93D18D250BC8018BA89CD0077ED2F4C)
Полное имя : Sovetnik.2013.DUAL.BDRip.x264.-HELLYWOOD.mkv
Формат : Matroska
Версия формата : Version 4 / Version 2
Размер файла : 2,19 Гбайт
Продолжительность : 1 ч. 57 м.
Общий поток : 2669 Кбит/сек
Название фильма : HELLYWOOD - rip by potroks
Дата кодирования : UTC 2014-02-03 04:07:53
Программа кодирования : mkvmerge v5.9.0 ('On The Loose') built on Dec 15 2012 16:39:58
Библиотека кодирования : libebml v1.3.0 + libmatroska v1.4.0

Видео
Идентификатор : 1
Формат : AVC
Формат/Информация : Advanced Video Codec
Профиль формата : High@L4.1
Параметр CABAC формата : Да
Параметр ReFrames формата : 10 кадров
Идентификатор кодека : V_MPEG4/ISO/AVC
Продолжительность : 1 ч. 57 м.
Битрейт : 1771 Кбит/сек
Ширина : 1056 пикселей
Высота : 440 пикселей
Соотношение сторон : 2,40:1
Режим частоты кадров : Постоянный
Частота кадров : 23,976 кадра/сек
Цветовое пространство : YUV
Субдискретизация насыщенности : 4:2:0
Битовая глубина : 8 бит
Тип развёртки : Прогрессивная
Бит/(Пиксели*Кадры) : 0.159
Размер потока : 1,41 Гбайт (64%)
Заголовок : The Counselor
Библиотека кодирования : x264 core 130 r2273 b3065e6
Настройки программы : cabac=1 / ref=10 / deblock=1:-2:-2 / analyse=0x3:0x133 / me=umh / subme=11 / psy=1 / psy_rd=1.05:0.00 / mixed_ref=1 / me_range=32 / chroma_me=1 / trellis=2 / 8x8dct=1 / cqm=0 / deadzone=21,11 / fast_pskip=0 / chroma_qp_offset=-2 / threads=6 / lookahead_threads=1 / sliced_threads=0 / nr=0 / decimate=0 / interlaced=0 / bluray_compat=0 / constrained_intra=0 / bframes=11 / b_pyramid=2 / b_adapt=2 / b_bias=0 / direct=3 / weightb=1 / open_gop=0 / weightp=2 / keyint=250 / keyint_min=23 / scenecut=40 / intra_refresh=0 / rc_lookahead=60 / rc=2pass / mbtree=0 / bitrate=1771 / ratetol=1.0 / qcomp=0.70 / qpmin=0 / qpmax=69 / qpstep=4 / cplxblur=20.0 / qblur=0.5 / vbv_maxrate=20000 / vbv_bufsize=20000 / nal_hrd=none / ip_ratio=1.35 / pb_ratio=1.25 / aq=1:0.80
Язык : English
Default : Да
Forced : Нет

Аудио #1
Идентификатор : 2
Формат : AC-3
Формат/Информация : Audio Coding 3
Расширение режима : CM (complete main)
Параметр Endianness формата : Big
Идентификатор кодека : A_AC3
Продолжительность : 1 ч. 57 м.
Вид битрейта : Постоянный
Битрейт : 448 Кбит/сек
Каналы : 6 каналов
Расположение каналов : Front: L C R, Side: L R, LFE
Частота : 48,0 КГц
Битовая глубина : 16 бит
Метод сжатия : С потерями
Размер потока : 376 Мбайт (17%)
Заголовок : Dub | DD 5.1 @ 448 kbps - BD EUR
Язык : Russian
Default : Да
Forced : Да

Аудио #2
Идентификатор : 3
Формат : AC-3
Формат/Информация : Audio Coding 3
Расширение режима : CM (complete main)
Параметр Endianness формата : Big
Идентификатор кодека : A_AC3
Продолжительность : 1 ч. 57 м.
Вид битрейта : Постоянный
Битрейт : 448 Кбит/сек
Каналы : 6 каналов
Расположение каналов : Front: L C R, Side: L R, LFE
Частота : 48,0 КГц
Битовая глубина : 16 бит
Метод сжатия : С потерями
Размер потока : 376 Мбайт (17%)
Заголовок : Original | DD 5.1 @ 448 kbps - BD EUR
Язык : English
Default : Нет
Forced : Нет

Текст #1
Идентификатор : 4
Формат : UTF-8
Идентификатор кодека : S_TEXT/UTF8
Идентификатор кодека/Информация : UTF-8 Plain Text
Заголовок : full
Язык : Russian
Default : Нет
Forced : Нет

Текст #2
Идентификатор : 5
Формат : UTF-8
Идентификатор кодека : S_TEXT/UTF8
Идентификатор кодека/Информация : UTF-8 Plain Text
Заголовок : full
Язык : Ukrainian
Default : Нет
Forced : Нет

Текст #3
Идентификатор : 6
Формат : UTF-8
Идентификатор кодека : S_TEXT/UTF8
Идентификатор кодека/Информация : UTF-8 Plain Text
Заголовок : full
Язык : English
Default : Нет
Forced : Нет

Текст #4
Идентификатор : 7
Формат : UTF-8
Идентификатор кодека : S_TEXT/UTF8
Идентификатор кодека/Информация : UTF-8 Plain Text
Заголовок : SDH
Язык : English
Default : Нет
Forced : Нет

Меню
00:00:00.000 : en:Chapter 1
00:04:44.701 : en:Chapter 2
00:07:54.056 : en:Chapter 3
00:09:49.588 : en:Chapter 4
00:13:45.532 : en:Chapter 5
00:20:49.831 : en:Chapter 6
00:23:53.098 : en:Chapter 7
00:26:31.715 : en:Chapter 8
00:34:09.881 : en:Chapter 9
00:39:30.659 : en:Chapter 10
00:45:38.402 : en:Chapter 11
00:48:20.772 : en:Chapter 12
00:54:04.157 : en:Chapter 13
00:58:46.272 : en:Chapter 14
01:00:29.083 : en:Chapter 15
01:08:26.352 : en:Chapter 16
01:12:55.162 : en:Chapter 17
01:17:10.834 : en:Chapter 18
01:20:23.735 : en:Chapter 19
01:23:28.795 : en:Chapter 20
01:25:56.067 : en:Chapter 21
01:30:28.589 : en:Chapter 22
01:33:16.132 : en:Chapter 23
01:38:24.273 : en:Chapter 24
01:43:28.577 : en:Chapter 25
01:47:40.662 : en:Chapter 26
01:49:45.829 : en:Chapter 27
01:53:11.618 : en:Chapter 28

pb.wtf



Скачать Советник через торрент http://i60.fastpic.ru/big/2014/0203/b1/0c9ca68e4164f5e32ab82926376c47b1.png Скачать фильм Советник через торрент бесплантно в хорошем качестве Описание: Успешный адвокат, стоящий практически на вершине успеха и на пороге собственной свадьбы, из любопытства и, конечно, ради денег ... 7.5 10 11
Info! Золотая раздача, скачанное не засчитывается.
Торрент: Зарегистрирован [2014-02-03 04:48] · скачан: 739 раз
Статус: √ проверено
Размер: 2.19 GB
Как cкачать? Как скачать Советник через торрент | UTorrent

% Раздел Тема Автор DL S | L
Фильмы [HD 720p, 1080p] (Хороший звук DUB, MVO) [ 5.65 GB ] Советник / The Counselor [2013 BDRip 720p ] кэп Скачать
1 | 0
Фильмы [HD 720p, 1080p] (Хороший звук DUB, MVO) [ 12.49 GB ] Советник [Театральная версия] / The Counselor [Theatrical Cut] [2013 BDRip 1080p] Messa-fan Скачать
1 | 0
Фильмы (Blu-ray, BD-Remux, HDDVD) [ 23.78 GB ] Советник / The Counselor [Extended Cut] [2013 BDRemux 1080p от ExKinoRay] Ворон Скачать
1 | 0
Фильмы [HD 720p, 1080p] (Хороший звук DUB, MVO) [ 16.56 GB ] Советник / The Counselor [Extended Cut] [2013 BDRip 1080p] Dub + Dub Ukr + Sub Rus Ukr Eng+ Original Eng Assasinca Скачать
1 | 0
Фильмы 2013 [DVDrip, WEB-DLRip, HDrip] [ 1.46 GB ] Советник / The Counselor [2013 HDRip ] кэп Скачать
1 | 0
Фильмы (DVD фильмы) [ 6.21 GB ] Советник / The Counselor [2013 DVD9] R5 voovaz Скачать
1 | 0
Фильмы 2013 [DVDrip, WEB-DLRip, HDrip] [ 2.91 GB ] Советник / The Counselor [2013 BDRip-AVC ] vovan Скачать
1 | 0


Последний раз редактировалось: potroks (2014-02-03 05:41), всего редактировалось 1 раз

28-11-2019 20:33  

Отключить всю рекламу на сайте

03-02-2014 04:50 Советник Скачать торрент  


  pb.wtf



03-02-2014 06:44 Советник Скачать торрент  

Film ocen slabyj,i skusnyj,aktiory xorosyje no eksen nebylo nikakovo,jeli jeli prosmotrel film i tak ja neponel suti filma :(
Karoce gavno, 3/10 neboleje.pb.wtf



03-02-2014 08:21 Советник Скачать торрент  

mindauginis2 писал(а):

Film ocen slabyj,i skusnyj,aktiory xorosyje no eksen nebylo nikakovo,jeli jeli prosmotrel film i tak ja neponel suti filma :(
Karoce gavno, 3/10 neboleje.

Потрясающе кривой транслит 3/10.pb.wtf



03-02-2014 21:41 Советник Скачать торрент  

спасибо за кино ну можно глянуть на и раз 7/10pb.wtf



07-02-2014 09:28 Советник Скачать торрент  

mindauginis2 писал(а):

Film ocen slabyj,i skusnyj,aktiory xorosyje no eksen nebylo nikakovo,jeli jeli prosmotrel film i tak ja neponel suti filma :(
Karoce gavno, 3/10 neboleje.

ну если мозг отсутствует, то понимать, конечно, трудно, за "экшеном" иди Риддика смотри - мозг переварит. Фильм на любителя, не спорю, но зато не стандартная жвачка для мозгов, так полюбившаяся (почему-то) нашему зрителю. Есть над чем подумать и есть что почувствовать. Смотрел в кинотеатре затаив дыхание, Ридли Скотт не разочаровал 10/10pb.wtf



08-02-2014 05:38 Советник Скачать торрент  

Фильм никакущий.Понять его нереально.pb.wtf



    Дорогой пользователь! Огромная просьба, поблагодарите релизера, оцените раздачу и оставьте свои комментарий, если Вы скачали Советник через торрент бесплатно! Внесите свою лепту в развитие PiratBit!
    Комментировать посты могут только пользователи прошедшие не сложную регистрацию
    Показать сообщения:    

    Советник через торрент
    Скачать бесплатно Советник
    Советник скачать торрент
    Советник смотреть онлайн
    Cкачать фильм Советник бесплатно
    Советник скачать торрент в хорошем качестве
    Советник смотреть онлайн бесплатно в хорошем качестве


    Вы не можете начинать темы
    Вы не можете отвечать на сообщения
    Вы не можете редактировать свои сообщения
    Вы не можете удалять свои сообщения
    Вы не можете голосовать в опросах
    Вы не можете прикреплять файлы к сообщениям
    Вы можете скачивать файлы