Ссылка на приватное зеркало нашего сайта всего за 1$. Внимание количество ограничено!!!

2 сезон

iTunes

1 сезон

1

iTunes

iTunes

iTunes

1 сезон

RePack

30

ИГРА 18+

pack

ВАЖНО

!!Акция!!

Alien_RageХит недели

RePack

MK11
pack

Забери бонус

RePack

jed

!!Акция!!

Alien_Rage

RePack

fifa19

RePack

Assassins Creed: Odyssey

RePack

NEED FOR SPEED™ PAYBACK

4 сезон

9 сезон

Бесстыжие 9 сезон

Все сериалы

все сериалы на PB.wtf

RePack

FAR CRY 5
  

Двенадцать бедствий на Рождество / The 12 Disasters of Christmas (Стивен Р. Монро) [2012 г., Фантастика, HDRip, Профессиональный (многоголосый, закадровый)] pb.wtf

Двенадцать бедствий на Рождество через торрент pb.wtf

Размер: 1.37 GB | Добавлен: 6 лет 8 мес. назад | Торрент скачан:82 раза
Скачать  

03-02-2014 08:12 Двенадцать бедствий на Рождество Скачать торрент  

Двенадцать бедствий на Рождество / The 12 Disasters of Christmas

Год выпуска: 2012
Страна: Канада / Golden Ring Productions
Жанр: Фантастика
Продолжительность: 01:29:47
Перевод: Профессиональный (многоголосый, закадровый)
Режиссер: Стивен Р. Монро
Продюссер: Джон Принц, Том Берри, Лиза М. Хансен
Сценарий: Руди Тобергер
Премьера в мире: 8 декабря 2012

В ролях: Эд Куинн, Магда Апанович, Холли Элисса, Райан Грантхэм, Кай-Эрик Эриксен, Роарк Критчлоу, Эндрю Эйрлай, Грег Кин, Доннелли Роудс, Бренна О'Брайен
Описание: Появление таинственной рождественской звезды предвещает конец света. Но что если одна девочка-подросток сможет предотвратить всемирную катастрофу?
Качество: HDRip
Формат: AVI
Видео кодек: XviD
Аудио кодек: AC3
Видео: 720x400, 1978 Kbps, 23.976 fps, 8 bits, 0.286 Bits/Pixel
Аудио: 192 Kbps, 48 KHz, 16 bits
скриншот  скриншот  скриншот  скриншот  скриншот  скриншот  

D:ФильмыДвенадцать бедствий на Рождество.2012.HDRip.avi
General
Complete name : D:ФильмыДвенадцать бедствий на Рождество.2012.HDRip.avi
Format : AVI
Format/Info : Audio Video Interleave
File size : 1.37 GiB
Duration : 1h 29mn
Overall bit rate : 2 179 Kbps
Writing application : VirtualDubMod 1.5.10.2 (build 2540/release)
Writing library : VirtualDubMod build 2540/release
Video #0
ID : 0
Format : MPEG-4 Visual
Format profile : Advanced Simple@L5
Format settings, BVOP : 2
Format settings, QPel : No
Format settings, GMC : No warppoints
Format settings, Matrix : Default (MPEG)
Codec ID : XVID
Codec ID/Hint : XviD
Duration : 1h 29mn
Bit rate : 1 978 Kbps
Width : 720 pixels
Height : 400 pixels
Display aspect ratio : 16:9
Frame rate : 23.976 fps
Color space : YUV
Chroma subsampling : 4:2:0
Bit depth : 8 bits
Scan type : Progressive
Compression mode : Lossy
Bits/(Pixel*Frame) : 0.286
Stream size : 1.24 GiB (91%)
Writing library : XviD 1.2.1 (UTC 2008-12-04)
Audio #1
ID : 1
Format : AC-3
Format/Info : Audio Coding 3
Mode extension : CM (complete main)
Format settings, Endianness : Big
Codec ID : 2000
Duration : 1h 29mn
Bit rate mode : Constant
Bit rate : 192 Kbps
Channel(s) : 2 channels
Channel positions : Front: L R
Sampling rate : 48.0 KHz
Bit depth : 16 bits
Compression mode : Lossy
Stream size : 123 MiB (9%)
Alignment : Split accross interleaves
Interleave, duration : 42 ms (1.00 video frame)
Interleave, preload duration : 500 ms


Двенадцать бедствий на Рождество скачать торрент


pb.wtf



Скачать Двенадцать бедствий на Рождество через торрент http://pic.kartinco.top/images/6/6dn21.jpg Скачать фильм Двенадцать бедствий на Рождество через торрент бесплантно в хорошем качестве Описание: Появление таинственной рождественской звезды предвещает конец света. Но что если одна девочка-подросток сможет предотвратить ... 8.7 10 9
Info! Золотая раздача, скачанное не засчитывается.
Торрент: Зарегистрирован [2014-02-03 08:12] · скачан: 82 раз
Статус: √ проверено
Размер: 1.37 GB
Как cкачать? Как скачать Двенадцать бедствий на Рождество через торрент | qTorrent

% Раздел Тема Автор DL S | L
Фильмы 2012 [ 1.37 GB ] Двенадцать бедствий на Рождество / The 12 Disasters of Christmas [2012 HDTVRip] -=Cherry=- Скачать
1 | 0

28-11-2019 20:33  

Отключить всю рекламу на сайте

03-02-2014 09:22 Двенадцать бедствий на Рождество Скачать торрент  

мда имдб и поиск просто блещут 3,5 sarcasticpb.wtf



03-02-2014 09:32 Двенадцать бедствий на Рождество Скачать торрент  

"Но что если одна девочка-подросток сможет предотвратить всемирную катастрофу? " рукалицоpb.wtf



03-02-2014 10:18 Двенадцать бедствий на Рождество Скачать торрент  

LsD_eshnic писал(а):

"Но что если одна девочка-подросток сможет предотвратить всемирную катастрофу? " рукалицо

а что не так?
возможно, древний бог просто ждал девственницу в жертву - всего одна девственница может усмирить гнев божества.pb.wtf



    Дорогой пользователь! Огромная просьба, поблагодарите релизера, оцените раздачу и оставьте свои комментарий, если Вы скачали Двенадцать бедствий на Рождество через торрент бесплатно! Внесите свою лепту в развитие PiratBit!
    Комментировать посты могут только пользователи прошедшие не сложную регистрацию
    Показать сообщения:    

    Двенадцать бедствий на Рождество через торрент
    Скачать бесплатно Двенадцать бедствий на Рождество
    Двенадцать бедствий на Рождество скачать торрент
    Двенадцать бедствий на Рождество смотреть онлайн
    Cкачать фильм Двенадцать бедствий на Рождество бесплатно
    Двенадцать бедствий на Рождество скачать торрент в хорошем качестве
    Двенадцать бедствий на Рождество смотреть онлайн бесплатно в хорошем качестве


    Вы не можете начинать темы
    Вы не можете отвечать на сообщения
    Вы не можете редактировать свои сообщения
    Вы не можете удалять свои сообщения
    Вы не можете голосовать в опросах
    Вы не можете прикреплять файлы к сообщениям
    Вы можете скачивать файлы