2 сезон

iTunes

MVO

1

2 сезон

iTunes

iTunes

1 сезон

RePack

30

Новинка

ВАЖНО

ИГРА 18+

pack

RePack

MK11
pack

Легкие деньги

RePack

jed

RePack

fifa19

RePack

RDR2

RePack

NEED FOR SPEED™ PAYBACK

4 сезон

9 сезон

Бесстыжие 9 сезон

Все сериалы

все сериалы на PB.wtf

RePack

FAR CRY 5

Anonymous, добрый вечер, мы не успеваем собрать деньги на оплату серверов за декабрь и январь, помогите нам пожалуйста в это трудное время. В качестве благодарности мы отключим Вам всю рекламу на сайте (укажите свой ник в строку Ваше имя)!

×
  
Magnet ссылка

Воры / The Thieves / Dodookdeul (Чхве Дон Хун / Choi Dong Hoon) [2012 г., Боевик, криминал, BDRip-AVC] DVO (НТВ+) + Original (KOR) + Sub (rus., eng.) pb.wtf

Воры через торрент pb.wtf

Размер: 1.94 GB | Добавлен: 6 лет 11 мес. назад | Торрент скачан:1391 раз
Скачать  

03-02-2014 10:03 Воры Скачать торрент  

Воры / The Thieves / Dodookdeul
Год выпуска: 2012
Страна: Южная Корея / CJ Venture Investment, KM Culture Co., Michigan Venture Capital
Жанр: Боевик, криминал,
Продолжительность: 02:15:53
Перевод: Профессиональный двухголосый [НТВ+]
Субтитры: Русские, английские

Режиссер: Чхве Дон Хун / Choi Dong Hoon



В ролях: Ким Юн Сок, И Чон Чжэ, О Дар Су, Саймон Ям, Чон Чи Хён, Ким Хэ Сук, Анжелика Ли, Ким Хё Су,

Описание: Интернациональная команда воров экстра-класса планирует грандиозное ограбление в Макао. Все участники банды — опытные профессионалы, бывали в переделках и способны эффективно работать в самых опасных и стрессовых условиях. Однако, несмотря на то, что все роли в безупречном плане преступления четко определены, многие из участников расклада совсем не собираются довольствоваться своей долей и коварно намереваются умыкнуть весь куш. К тому же один из них — полицейский «под прикрытием»…

Качество: BDRip-AVC
Формат: MKV
Видео кодек: H.264
Аудио кодек: AC3
Видео: 1120x476 (2,35:1), 24,000 fps, 1402 Кbps, 0.110 bit/pixel
Аудио#1: 48 kHz, AC3 Dolby Digital, 2/0 (L,C) ch, 192.00 kbps | RUS
Аудио#2: 48 kHz, AC3 Dolby Digital, 3/2 (L,C,R,l,r) + LFE ch, 448.00 kbps | KOR

Релиз группы:
Автор рипа: potroks





Общее
Уникальный идентификатор : 207378311516558269924235749546602832694 (0x9C039C28BD0F4366BBFCD1521648A336)
Полное имя : Vory.2012.DUAL.BDRip.x264.-HELLYWOOD.mkv
Формат : Matroska
Версия формата : Version 4 / Version 2
Размер файла : 1,94 Гбайт
Продолжительность : 2 ч. 15 м.
Общий поток : 2043 Кбит/сек
Название фильма : HELLYWOOD - rip by potroks
Дата кодирования : UTC 2014-02-03 09:34:47
Программа кодирования : mkvmerge v5.9.0 ('On The Loose') built on Dec 15 2012 16:39:58
Библиотека кодирования : libebml v1.3.0 + libmatroska v1.4.0

Видео
Идентификатор : 1
Формат : AVC
Формат/Информация : Advanced Video Codec
Профиль формата : High@L4.1
Параметр CABAC формата : Да
Параметр ReFrames формата : 14 кадров
Идентификатор кодека : V_MPEG4/ISO/AVC
Продолжительность : 2 ч. 15 м.
Битрейт : 1402 Кбит/сек
Ширина : 1120 пикселей
Высота : 476 пикселей
Соотношение сторон : 2,35:1
Режим частоты кадров : Постоянный
Частота кадров : 24,000 кадра/сек
Цветовое пространство : YUV
Субдискретизация насыщенности : 4:2:0
Битовая глубина : 8 бит
Тип развёртки : Прогрессивная
Бит/(Пиксели*Кадры) : 0.110
Размер потока : 1,29 Гбайт (67%)
Заголовок : Dodookdeul / The Thieve
Библиотека кодирования : x264 core 130 r2273 b3065e6
Настройки программы : cabac=1 / ref=14 / deblock=1:-2:-1 / analyse=0x3:0x133 / me=umh / subme=11 / psy=1 / psy_rd=1.02:0.00 / mixed_ref=1 / me_range=32 / chroma_me=1 / trellis=2 / 8x8dct=1 / cqm=0 / deadzone=21,11 / fast_pskip=0 / chroma_qp_offset=-2 / threads=6 / lookahead_threads=1 / sliced_threads=0 / nr=0 / decimate=1 / interlaced=0 / bluray_compat=0 / constrained_intra=0 / bframes=15 / b_pyramid=2 / b_adapt=2 / b_bias=0 / direct=3 / weightb=1 / open_gop=0 / weightp=2 / keyint=250 / keyint_min=23 / scenecut=40 / intra_refresh=0 / rc_lookahead=60 / rc=2pass / mbtree=0 / bitrate=1402 / ratetol=1.0 / qcomp=0.70 / qpmin=0 / qpmax=69 / qpstep=4 / cplxblur=20.0 / qblur=0.5 / vbv_maxrate=20000 / vbv_bufsize=20000 / nal_hrd=none / ip_ratio=1.35 / pb_ratio=1.25 / aq=1:0.80
Язык : Korean
Default : Да
Forced : Нет

Аудио #1
Идентификатор : 2
Формат : AC-3
Формат/Информация : Audio Coding 3
Расширение режима : CM (complete main)
Параметр Endianness формата : Big
Идентификатор кодека : A_AC3
Продолжительность : 2 ч. 15 м.
Вид битрейта : Постоянный
Битрейт : 192 Кбит/сек
Каналы : 2 канала
Расположение каналов : Front: L R
Частота : 48,0 КГц
Битовая глубина : 16 бит
Метод сжатия : С потерями
Размер потока : 187 Мбайт (9%)
Заголовок : MVO | DD 2.0 @ 192 kbps - НТВ+
Язык : Russian
Default : Да
Forced : Да

Аудио #2
Идентификатор : 3
Формат : AC-3
Формат/Информация : Audio Coding 3
Расширение режима : CM (complete main)
Параметр Endianness формата : Big
Идентификатор кодека : A_AC3
Продолжительность : 2 ч. 15 м.
Вид битрейта : Постоянный
Битрейт : 448 Кбит/сек
Каналы : 6 каналов
Расположение каналов : Front: L C R, Side: L R, LFE
Частота : 48,0 КГц
Битовая глубина : 16 бит
Метод сжатия : С потерями
Размер потока : 435 Мбайт (22%)
Заголовок : Original | DD 5.1 @ 448 kbps
Язык : Korean
Default : Нет
Forced : Нет

Текст #1
Идентификатор : 4
Формат : UTF-8
Идентификатор кодека : S_TEXT/UTF8
Идентификатор кодека/Информация : UTF-8 Plain Text
Язык : Russian
Default : Нет
Forced : Нет

Текст #2
Идентификатор : 5
Формат : UTF-8
Идентификатор кодека : S_TEXT/UTF8
Идентификатор кодека/Информация : UTF-8 Plain Text
Язык : English
Default : Нет
Forced : Нет

pb.wtf



Скачать Воры через торрент http://i33.fastpic.ru/big/2014/0203/ac/cfb0b01cb0b6cd44a74fbd01a494b0ac.jpg Скачать фильм Воры через торрент бесплантно в хорошем качестве Описание: Интернациональная команда воров экстра-класса планирует грандиозное ограбление в Макао. Все участники банды — опытные ... 9.7 10 28
Info! Золотая раздача, скачанное не засчитывается.
Торрент: Зарегистрирован [2014-02-03 10:03] · скачан: 1 391 раз
Статус: √ проверено
Размер: 1.94 GB
Как cкачать? Как скачать Воры через торрент | UTorrent

28-11-2019 20:33  

Отключить всю рекламу на сайте

03-02-2014 10:12 Воры Скачать торрент  


  pb.wtf



03-02-2014 13:21 Воры Скачать торрент  

Смотрел давно...И на удивление очень не плохой фильмец оказался yespb.wtf



03-02-2014 21:06 Воры Скачать торрент  

ничё се трейлер....на два с половиной часа pb.wtf



06-02-2014 17:28 Воры Скачать торрент  

kaxaber74 писал(а):

ничё се трейлер....на два с половиной часа

pb.wtf



17-02-2014 05:30 Воры Скачать торрент  

посмотрел трейлер, понял фильм фигня, не буду качать pb.wtf



    Дорогой пользователь! Огромная просьба, поблагодарите релизера, оцените раздачу и оставьте свои комментарий, если Вы скачали Воры через торрент бесплатно! Внесите свою лепту в развитие PiratBit!
    Комментировать посты могут только пользователи прошедшие не сложную регистрацию
    Показать сообщения:    

    Воры через торрент
    Скачать бесплатно Воры
    Воры скачать торрент
    Воры смотреть онлайн
    Cкачать фильм Воры бесплатно
    Воры скачать торрент в хорошем качестве
    Воры смотреть онлайн бесплатно в хорошем качестве


    Вы не можете начинать темы
    Вы не можете отвечать на сообщения
    Вы не можете редактировать свои сообщения
    Вы не можете удалять свои сообщения
    Вы не можете голосовать в опросах
    Вы не можете прикреплять файлы к сообщениям
    Вы можете скачивать файлы