1 сезон

1 сезон

iTunes

1

КиноПоиск HD

Кинопоиск HD

iTunes

13

1 сезон

RePack

30

Новинка

ВАЖНО

ИГРА 18+

pack

RePack

MK11
pack

Легкие деньги

RePack

jed

RePack

fifa19

RePack

RDR2

RePack

NEED FOR SPEED™ PAYBACK

4 сезон

9 сезон

Бесстыжие 9 сезон

Все сериалы

все сериалы на PB.wtf

RePack

FAR CRY 5
  
Magnet ссылка

Затерянный мир / The Lost World (Стюарт Орм) [2001 г., Фэнтези, приключения, DVDRip, Профессиональный двухголосый (закадровый)] pb.wtf

Затерянный мир через торрент pb.wtf

Размер: 2.18 GB | Добавлен: 7 лет 2 мес. назад | Торрент скачан:36 раз
Скачать  

03-02-2014 14:25 Затерянный мир Скачать торрент  

Затерянный мир / The Lost World

Год выпуска: 2001
Страна: Германия, США, Великобритания
Жанр: Фэнтези, приключения
Продолжительность: 02:25:24
Перевод: Профессиональный двухголосый (закадровый)
Субтитры: Нет

Режиссер: Стюарт Орм
Продюссер: Кристофер Холл, Делия Файн, Тим Хайнс
Сценарий: Адриан Ходжес, Тони Малхолланд, Артур Конан Дойл

Премьера в мире: 25 декабря 2001



В ролях: Боб Хоскинс, Джеймс Фокс, Том Уорд, Мэттью Риз, Илэйн Кэссиди, Питер Фальк, Натаниель Лииз, Тамати Райс, Николь Виппи, Иниа Максвелл

Описание: В начале XX века знаменитый профессор Челленджер делает потрясающее открытие — на удаленном плато в джунглях Амазонки существует удивительный и прекрасный мир, в котором до сих пор обитают динозавры. Миллионы лет эволюции его не коснулись — он остался в первозданном виде.
Чтобы переубедить скептиков, группа искателей приключений — сам Челленджер, его чудаковатый коллега, богатая наследница, бесстрашный охотник и молодой репортер — отправляются в захватывающее, полное опасностей путешествие на поиски этого удивительного доисторического мира.

Качество: DVDRip
Формат: AVI
Видео кодек: XviD
Аудио кодек: AC3
Видео: 720x400 (16:9), 25.000 fps, XviD build 50 ~1760 kbps avg, 0.24 bit/pixel
Аудио: 48 kHz, AC3 Dolby Digital, 3/2 (L,C,R,l,r) + LFE ch, ~384 kbps






Общее
Полное имя : E:Затерянный мир -The Lost World (2001) DVDRip.avi
Формат : AVI
Формат/Информация : Audio Video Interleave
Размер файла : 2,18 Гбайт
Продолжительность : 2 ч. 25 м.
Общий поток : 2144 Кбит/сек
Программа кодирования : VirtualDubMod 1.5.10.2 (build 2540/release)
Библиотека кодирования : VirtualDubMod build 2540/release

Видео
Идентификатор : 0
Формат : MPEG-4 Visual
Профиль формата : Advanced Simple@L5
Параметр BVOP формата : 1
Параметр QPel формата : Нет
Параметр GMC формата : Без точки перехода
Параметр матрицы формата : Выборочная
Идентификатор кодека : XVID
Идентификатор кодека/Подсказка : XviD
Продолжительность : 2 ч. 25 м.
Битрейт : 1750 Кбит/сек
Ширина : 720 пикселей
Высота : 400 пикселей
Соотношение сторон : 16:9
Частота кадров : 25,000 кадров/сек
Цветовое пространство : YUV
Субдискретизация насыщенности : 4:2:0
Битовая глубина : 8 бит
Тип развёртки : Прогрессивная
Метод сжатия : С потерями
Бит/(Пиксели*Кадры) : 0.243
Размер потока : 1,78 Гбайт (82%)
Библиотека кодирования : XviD 1.2.1 (UTC 2008-12-04)

Аудио
Идентификатор : 1
Формат : AC-3
Формат/Информация : Audio Coding 3
Расширение режима : CM (complete main)
Параметр Endianness формата : Big
Идентификатор кодека : 2000
Продолжительность : 2 ч. 25 м.
Вид битрейта : Постоянный
Битрейт : 384 Кбит/сек
Каналы : 6 каналов
Расположение каналов : Front: L C R, Side: L R, LFE
Частота : 48,0 КГц
Битовая глубина : 16 бит
Метод сжатия : С потерями
Размер потока : 399 Мбайт (18%)
Выравнивание : Разделение по промежуткам
Продолжительность промежутка : 40 мс. (1,00 видеокадр)
Время предзагрузки промежутка : 500 мс.
pb.wtf



Скачать Затерянный мир через торрент http://2.firepic.org/2/images/2014-02/03/mrnad0he95z6.jpg Скачать фильм Затерянный мир через торрент бесплантно в хорошем качестве Описание: В начале XX века знаменитый профессор Челленджер делает потрясающее открытие — на удаленном плато в джунглях Амазонки существует ... 10 10 9
Info! Золотая раздача, скачанное не засчитывается.
Торрент: Зарегистрирован [2014-02-03 14:25] · скачан: 36 раз
Статус: √ проверено
Размер: 2.18 GB
Как cкачать? Как скачать Затерянный мир через торрент | UTorrent

% Раздел Тема Автор DL S | L
Фильмы (HD 720p, 1080p) (48-60 fps) [ 5.77 GB ] Парк Юрского периода 2: Затерянный мир / The Lost World: Jurassic Park [1997 BDRip 720p / 60 FPS ] от R.G. HD-Films slaventi-69 Скачать
1 | 2
Классика зарубежного кино [ 4.51 GB ] Затерянный мир / The Lost World [1960 экранизация BDRip 720p от KORSAR][VO] Cthulhu Скачать
1 | 0
Фильмы [HD 720p, 1080p] (Звук Cam, VO, DVO) [ 9.45 GB ] Затерянный мир / The Lost World [1960 BDRip 1080p by msltel] VO msltel Скачать
1 | 0
Фильмы [HD 720p, 1080p] (Звук Cam, VO, DVO) [ 3.5 GB ] Затерянный мир / The Lost World [1960 BDRip 720p by msltel] VO msltel Скачать
1 | 0
Классика зарубежного кино [ 7.94 GB ] Затерянный мир / The Lost World [1925 BDRip 1080p] [Немое Кино] killermax2013 Скачать
1 | 0
Ultra HD (UHD: 2K, 4K, 8K) — видео сверхвысокой чёткости [ 32.87 GB ] Парк Юрского периода 2: Затерянный мир / Lost World: Jurassic Park The [1997 UHD BDRip 2160p] [SDR] 6xMVO + 5xAVO sheker187 Скачать
1 | 0
Ultra HD (UHD: 2K, 4K, 8K) — видео сверхвысокой чёткости [ 99.71 GB ] Парк Юрского периода 2: Затерянный мир / The Lost World: Jurassic Park [1997 UHD BDRemux 2160p] 7xMVO+DUB+7xAVO+3xVO bober100 Скачать
1 | 0

28-11-2019 20:33  

Отключить всю рекламу на сайте

    Дорогой пользователь! Огромная просьба, поблагодарите релизера, оцените раздачу и оставьте свои комментарий, если Вы скачали Затерянный мир через торрент бесплатно! Внесите свою лепту в развитие PiratBit!
    Комментировать посты могут только пользователи прошедшие не сложную регистрацию
    Показать сообщения:    

    Затерянный мир через торрент
    Скачать бесплатно Затерянный мир
    Затерянный мир скачать торрент
    Затерянный мир смотреть онлайн
    Cкачать фильм Затерянный мир бесплатно
    Затерянный мир скачать торрент в хорошем качестве
    Затерянный мир смотреть онлайн бесплатно в хорошем качестве


    Вы не можете начинать темы
    Вы не можете отвечать на сообщения
    Вы не можете редактировать свои сообщения
    Вы не можете удалять свои сообщения
    Вы не можете голосовать в опросах
    Вы не можете прикреплять файлы к сообщениям
    Вы можете скачивать файлы