Ссылка на приватное зеркало нашего сайта всего за 1$. Внимание количество ограничено!!!

2 сезон

iTunes

1 сезон

1

iTunes

iTunes

iTunes

1 сезон

RePack

30

ИГРА 18+

pack

ВАЖНО

!!Акция!!

Alien_RageХит недели

RePack

MK11
pack

Забери бонус

RePack

jed

!!Акция!!

Alien_Rage

RePack

fifa19

RePack

Assassins Creed: Odyssey

RePack

NEED FOR SPEED™ PAYBACK

4 сезон

9 сезон

Бесстыжие 9 сезон

Все сериалы

все сериалы на PB.wtf

RePack

FAR CRY 5
  

Наследство / Legacy (Пит Тревис / Pete Travis) [ 2013, Триллер, Драма, WEBRip ] [VO] pb.wtf

Наследство через торрент pb.wtf

Размер: 1.45 GB | Добавлен: 6 лет 8 мес. назад | Торрент скачан:66 раз
Скачать  

03-02-2014 19:59 Наследство Скачать торрент  

Наследство / Legacy

Информация о фильме:

  • Год выпуска: 2013
  • Страна: Великобритания / BBC Drama Productions
  • Жанр: Триллер, Драма
  • Продолжительность: 01:28:54
  • Перевод: Одноголосый закадровый, любительский (Liquid92)
  • Cубтитры: -

    Актеры:

    Ромола Гарай, Чарли Кокс, Эндрю Скотт, Оливия Грант, Джеральдин Джеймс, Саймон Расселл Бил, Кристиан МакКэй, Тесса Пик-Джонс, Ричард МакКейб, Барри Мартин

  • Режиссер: Пит Тревис / Pete Travis
    Описание:

    Действие фильма разворачивается в 1970-х годах в Лондоне, в разгар Холодной войны. Главный герой Чарльз только что вернулся из армии, и теперь он — молодой сотрудник секретной разведывательной британской организации Ми-6. Ему предстоит завербовать Виктора Козлова, который служит в посольстве СССР. Начальству Чарльза кажется, что этого человека можно без труда использовать в своих целях. Разбираясь в веренице интриг и любовниц, Чарли неожиданно узнаёт секретную информацию о собственном отце, и теперь его миссия находится под угрозой наряду со всем остальным, чем жил британский шпион.



    Тех данные :


  • Качество видео: WEBRip
  • Формат видео: AVI
  • Видео кодек: DivX
  • Аудио кодек: AC3 2.0
  • Видео: 720x400, ~2174 kbps , 23,976 fps
  • Аудио: 160 kbps , 2 ch , 48 kHz (Русский)

    Код:

    Формат : AVI
    Формат/Информация : Audio Video Interleave
    Размер файла : 1,45 Гбайт
    Продолжительность : 1 ч. 28 м.
    Общий поток : 2339 Кбит/сек
    Программа кодирования : VirtualDubMod 1.5.10.3 | www.virtualdub-fr.org || (build 2550/release)
    Библиотека кодирования : VirtualDubMod build 2550/release

    Видео
    Идентификатор : 0
    Формат : MPEG-4 Visual
    Профиль формата : Advanced Simple@L5
    Параметр BVOP формата : 1
    Параметр QPel формата : Нет
    Параметр GMC формата : Без точки перехода
    Параметр матрицы формата : Default (MPEG)
    Идентификатор кодека : DX50
    Идентификатор кодека/Подсказка : DivX 5
    Продолжительность : 1 ч. 28 м.
    Битрейт : 2174 Кбит/сек
    Ширина : 720 пикселей
    Высота : 400 пикселей
    Соотношение сторон : 16:9
    Частота кадров : 25,000 кадров/сек
    Цветовое пространство : YUV
    Субдискретизация насыщенности : 4:2:0
    Битовая глубина : 8 бит
    Тип развёртки : Прогрессивная
    Метод сжатия : С потерями
    Бит/(Пиксели*Кадры) : 0.302
    Размер потока : 1,35 Гбайт (93%)
    Библиотека кодирования : XviD 1.2.1 (UTC 2008-12-04)

    Аудио
    Идентификатор : 1
    Формат : AC-3
    Формат/Информация : Audio Coding 3
    Расширение режима : CM (complete main)
    Параметр Endianness формата : Big
    Идентификатор кодека : 2000
    Продолжительность : 1 ч. 28 м.
    Вид битрейта : Постоянный
    Битрейт : 160 Кбит/сек
    Каналы : 2 канала
    Расположение каналов : Front: L R
    Частота : 48,0 КГц
    Битовая глубина : 16 бит
    Метод сжатия : С потерями
    Размер потока : 102 Мбайт (7%)
    Выравнивание : Соединение по промежуткам
    Продолжительность промежутка : 192 мс. (4,80 видеокадров)
    Время предзагрузки промежутка : 576 мс.



    pb.wtf



  • Скачать Наследство через торрент http://i59.fastpic.ru/big/2014/0126/74/4e6f3f96ffd4ab79cc85575193bbbb74.png Скачать фильм Наследство через торрент бесплантно в хорошем качестве Описание: Действие фильма разворачивается в 1970-х годах в Лондоне, в разгар Холодной войны. Главный герой Чарльз только что вернулся из ... 10 10 5
    Info! Золотая раздача, скачанное не засчитывается.
    Торрент: Зарегистрирован [2014-02-03 19:59] · скачан: 66 раз
    Статус: T временная
    Размер: 1.45 GB
    Как cкачать? Как скачать Наследство через торрент | qTorrent

    28-11-2019 20:33  

    Отключить всю рекламу на сайте

      Дорогой пользователь! Огромная просьба, поблагодарите релизера, оцените раздачу и оставьте свои комментарий, если Вы скачали Наследство через торрент бесплатно! Внесите свою лепту в развитие PiratBit!
      Комментировать посты могут только пользователи прошедшие не сложную регистрацию
      Показать сообщения:    

      Наследство через торрент
      Скачать бесплатно Наследство
      Наследство скачать торрент
      Наследство смотреть онлайн
      Cкачать фильм Наследство бесплатно
      Наследство скачать торрент в хорошем качестве
      Наследство смотреть онлайн бесплатно в хорошем качестве


      Вы не можете начинать темы
      Вы не можете отвечать на сообщения
      Вы не можете редактировать свои сообщения
      Вы не можете удалять свои сообщения
      Вы не можете голосовать в опросах
      Вы не можете прикреплять файлы к сообщениям
      Вы можете скачивать файлы