2 сезон

iTunes

MVO

1

2 сезон

iTunes

iTunes

1 сезон

RePack

30

Ultimate

ВАЖНО

ИГРА 18+

pack

RePack

MK11
pack

Легкие деньги

RePack

jed

RePack

fifa19

RePack

RDR2

RePack

NEED FOR SPEED™ PAYBACK

4 сезон

9 сезон

Бесстыжие 9 сезон

Все сериалы

все сериалы на PB.wtf

RePack

FAR CRY 5

Anonymous, добрый вечер, мы не успеваем собрать деньги на оплату серверов за декабрь и январь, помогите нам пожалуйста в это трудное время. В качестве благодарности мы отключим Вам всю рекламу на сайте (укажите свой ник в строку Ваше имя)!

×
  
Magnet ссылка

Телекинез / Carrie (Кимберли Пирс / Kimberly Peirce) [2013 г., Триллер, ужасы, драма, BDRip-AVC] Dub (BD) + Original (Eng) + Sub (rus., ukr., eng.) pb.wtf

Телекинез через торрент pb.wtf

Размер: 2.19 GB | Добавлен: 6 лет 11 мес. назад | Торрент скачан:331 раз
Скачать  

04-02-2014 05:23 Телекинез Скачать торрент  

Телекинез / Carrie
Год выпуска: 2013
Страна: США / Metro-Goldwyn-Mayer (MGM), Misher Films, Screen Gems
Жанр: Триллер, ужасы, драма,
Продолжительность: 01:39:41
Перевод: Дубляж [Лицензия]
Субтитры: Русские (полные + надписи), украинские (полные + надписи), английские (Full + SDH + SDH-Colored)

Режиссер: Кимберли Пирс / Kimberly Peirce



В ролях: Хлоя Грейс Морец, Джулианна Мур, Джуди Грир, Портия Даблдэй, Габриэлла Уайлд, Алекс Расселл, Зои Белкин, Энсел Эльгорт, Саманта Вайнштейн, Карисса Стрэйн,

Описание: Невзрачная старшеклассница по имени Кэрри с рождения обладает способностями телекинеза. Давление со стороны фанатично религиозной мамочки и постоянные издевки сверстников лишь способствует развитию ее сверхъестественных способностей. На выпускном одноклассники решают жестоко подшутить над ней, что приводит к фатальным последствиям.

Качество: BDRip-AVC
Формат: MKV
Видео кодек: H.264
Аудио кодек: AC3
Видео: 1100x468 (2,35:1), 23,976 fps, 2241 Кbps, 0.182 bit/pixel
Аудио#1: 48 kHz, AC3 Dolby Digital, 3/2 (L,C,R,l,r) + LFE ch, 448.00 kbps | RUS
Аудио#2: 48 kHz, AC3 Dolby Digital, 3/2 (L,C,R,l,r) + LFE ch, 448.00 kbps | ENG

Релиз группы:
Автор рипа: potroks





Общее
Уникальный идентификатор : 204566115429155345876143944842356828981 (0x99E6002FEB7A15B6A4A1A6841EBDAB35)
Полное имя : Telekinez.2013.DUAL.BDRip.x264.-HELLYWOOD.mkv
Формат : Matroska
Версия формата : Version 4 / Version 2
Размер файла : 2,19 Гбайт
Продолжительность : 1 ч. 39 м.
Общий поток : 3139 Кбит/сек
Название фильма : HELLYWOOD - rip by potroks
Дата кодирования : UTC 2014-02-04 05:07:37
Программа кодирования : mkvmerge v5.9.0 ('On The Loose') built on Dec 15 2012 16:39:58
Библиотека кодирования : libebml v1.3.0 + libmatroska v1.4.0

Видео
Идентификатор : 1
Формат : AVC
Формат/Информация : Advanced Video Codec
Профиль формата : High@L4.1
Параметр CABAC формата : Да
Параметр ReFrames формата : 14 кадров
Идентификатор кодека : V_MPEG4/ISO/AVC
Продолжительность : 1 ч. 39 м.
Битрейт : 2241 Кбит/сек
Ширина : 1100 пикселей
Высота : 468 пикселей
Соотношение сторон : 2,35:1
Режим частоты кадров : Постоянный
Частота кадров : 23,976 кадра/сек
Цветовое пространство : YUV
Субдискретизация насыщенности : 4:2:0
Битовая глубина : 8 бит
Тип развёртки : Прогрессивная
Бит/(Пиксели*Кадры) : 0.182
Размер потока : 1,52 Гбайт (69%)
Заголовок : Carrie
Библиотека кодирования : x264 core 130 r2273 b3065e6
Настройки программы : cabac=1 / ref=14 / deblock=1:-3:-3 / analyse=0x3:0x133 / me=umh / subme=11 / psy=1 / psy_rd=1.11:0.01 / mixed_ref=1 / me_range=32 / chroma_me=1 / trellis=2 / 8x8dct=1 / cqm=0 / deadzone=21,11 / fast_pskip=0 / chroma_qp_offset=-3 / threads=9 / lookahead_threads=7 / sliced_threads=0 / nr=0 / decimate=0 / interlaced=0 / bluray_compat=0 / constrained_intra=0 / bframes=15 / b_pyramid=2 / b_adapt=2 / b_bias=0 / direct=3 / weightb=1 / open_gop=0 / weightp=2 / keyint=250 / keyint_min=23 / scenecut=40 / intra_refresh=0 / rc_lookahead=60 / rc=2pass / mbtree=0 / bitrate=2241 / ratetol=1.0 / qcomp=0.70 / qpmin=0 / qpmax=69 / qpstep=4 / cplxblur=20.0 / qblur=0.5 / vbv_maxrate=20000 / vbv_bufsize=20000 / nal_hrd=none / ip_ratio=1.35 / pb_ratio=1.25 / aq=1:0.80
Язык : English
Default : Да
Forced : Нет

Аудио #1
Идентификатор : 2
Формат : AC-3
Формат/Информация : Audio Coding 3
Расширение режима : CM (complete main)
Параметр Endianness формата : Big
Идентификатор кодека : A_AC3
Продолжительность : 1 ч. 39 м.
Вид битрейта : Постоянный
Битрейт : 448 Кбит/сек
Каналы : 6 каналов
Расположение каналов : Front: L C R, Side: L R, LFE
Частота : 48,0 КГц
Битовая глубина : 16 бит
Метод сжатия : С потерями
Размер потока : 319 Мбайт (14%)
Заголовок : Dub | DD 5.1 @ 448 kbps
Язык : Russian
Default : Да
Forced : Да

Аудио #2
Идентификатор : 3
Формат : AC-3
Формат/Информация : Audio Coding 3
Расширение режима : CM (complete main)
Параметр Endianness формата : Big
Идентификатор кодека : A_AC3
Продолжительность : 1 ч. 39 м.
Вид битрейта : Постоянный
Битрейт : 448 Кбит/сек
Каналы : 6 каналов
Расположение каналов : Front: L C R, Side: L R, LFE
Частота : 48,0 КГц
Битовая глубина : 16 бит
Метод сжатия : С потерями
Размер потока : 319 Мбайт (14%)
Заголовок : Original | DD 5.1 @ 448 kbps
Язык : English
Default : Нет
Forced : Нет

Текст #1
Идентификатор : 4
Формат : UTF-8
Идентификатор кодека : S_TEXT/UTF8
Идентификатор кодека/Информация : UTF-8 Plain Text
Заголовок : надписи
Язык : Russian
Default : Да
Forced : Нет

Текст #2
Идентификатор : 5
Формат : UTF-8
Идентификатор кодека : S_TEXT/UTF8
Идентификатор кодека/Информация : UTF-8 Plain Text
Язык : Russian
Default : Нет
Forced : Нет

Текст #3
Идентификатор : 6
Формат : UTF-8
Идентификатор кодека : S_TEXT/UTF8
Идентификатор кодека/Информация : UTF-8 Plain Text
Заголовок : надписи
Язык : Ukrainian
Default : Нет
Forced : Нет

Текст #4
Идентификатор : 7
Формат : UTF-8
Идентификатор кодека : S_TEXT/UTF8
Идентификатор кодека/Информация : UTF-8 Plain Text
Язык : Ukrainian
Default : Нет
Forced : Нет

Текст #5
Идентификатор : 8
Формат : UTF-8
Идентификатор кодека : S_TEXT/UTF8
Идентификатор кодека/Информация : UTF-8 Plain Text
Заголовок : Full
Язык : English
Default : Нет
Forced : Нет

Текст #6
Идентификатор : 9
Формат : UTF-8
Идентификатор кодека : S_TEXT/UTF8
Идентификатор кодека/Информация : UTF-8 Plain Text
Заголовок : SDH-Colored
Язык : English
Default : Нет
Forced : Нет

Текст #7
Идентификатор : 10
Формат : UTF-8
Идентификатор кодека : S_TEXT/UTF8
Идентификатор кодека/Информация : UTF-8 Plain Text
Заголовок : SDH
Язык : English
Default : Нет
Forced : Нет

Меню
00:00:00.000 : en:(01)00:00:00:000
00:04:14.545 : en:(02)00:04:14:545
00:06:37.855 : en:(03)00:06:37:855
00:10:07.648 : en:(04)00:10:07:648
00:12:03.681 : en:(05)00:12:03:681
00:14:46.176 : en:(06)00:14:46:176
00:18:50.462 : en:(07)00:18:50:462
00:23:15.060 : en:(08)00:23:15:060
00:26:51.401 : en:(09)00:26:51:401
00:30:50.974 : en:(10)00:30:50:974
00:32:27.862 : en:(11)00:32:27:862
00:36:18.092 : en:(12)00:36:18:092
00:38:20.339 : en:(13)00:38:20:339
00:41:47.755 : en:(14)00:41:47:755
00:46:22.196 : en:(15)00:46:22:196
00:51:01.850 : en:(16)00:51:01:850
00:53:09.853 : en:(17)00:53:09:853
00:55:47.677 : en:(18)00:55:47:677
01:00:52.065 : en:(19)01:00:52:065
01:04:02.338 : en:(20)01:04:02:338
01:07:03.310 : en:(21)01:07:03:310
01:09:38.382 : en:(22)01:09:38:382
01:13:05.381 : en:(23)01:13:05:381
01:18:25.158 : en:(24)01:18:25:158
01:22:46.711 : en:(25)01:22:46:711
01:25:17.862 : en:(26)01:25:17:862
01:29:25.360 : en:(27)01:29:25:360
01:33:36.402 : en:(28)01:33:36:402
01:39:40.974 : en:(29)01:39:40:974

pb.wtf



Скачать Телекинез через торрент http://i60.fastpic.ru/big/2014/0204/65/4c17335c1087d3a58c322c7b1ea73265.png Скачать фильм Телекинез через торрент бесплантно в хорошем качестве Описание: Невзрачная старшеклассница по имени Кэрри с рождения обладает способностями телекинеза. Давление со стороны фанатично религиозной ... 9.7 10 12
Info! Золотая раздача, скачанное не засчитывается.
Торрент: Зарегистрирован [2014-02-04 05:23] · скачан: 331 раз
Статус: √ проверено
Размер: 2.19 GB
Как cкачать? Как скачать Телекинез через торрент | UTorrent

% Раздел Тема Автор DL S | L
Фильмы 2013 (Звук TS, Cam, VO, DVO) [ 1.86 GB ] Телекинез / Carrie [2013 BDRip от PashaUp / Смешной перевод] Ворон Скачать
1 | 0
Фильмы (DVD фильмы) [ 7.27 GB ] Телекинез / Carrie [2013 DVD9] R5 voovaz Скачать
1 | 0
Фильмы 2013 [DVDrip, WEB-DLRip, HDrip] [ 1.46 GB ] Телекинез / Carrie [2013 BDRip-AVC] [Extended Cut] Dub () + Eng + Subs sokol_ok Скачать
2 | 0
Фильмы 2013 [DVDrip, WEB-DLRip, HDrip] [ 2.18 GB ] Телекинез / Carrie [2013 BDRip-AVC] [Extended Cut] Dub () + AVO + Eng + Subs sokol_ok Скачать
2 | 0
Фильмы (Blu-ray, BD-Remux, HDDVD) [ 23.13 GB ] Телекинез / Carrie [2013 BD-Remux ] Бумер Скачать
1 | 0
Фильмы (Blu-ray, BD-Remux, HDDVD) [ 39.55 GB ] Телекинез / Carrie [2-in-1: Theatrical & Extended Cut] [ 2013 Blu-Ray 1080p ] [лицензия] читерас Скачать
1 | 0
Фильмы 2013 [DVDrip, WEB-DLRip, HDrip] [ 2.06 GB ] Телекинез / Carrie [2013 экранизация HDRip ||] кэп Скачать
1 | 0

28-11-2019 20:33  

Отключить всю рекламу на сайте

04-02-2014 05:28 Телекинез Скачать торрент  


  pb.wtf



23-10-2015 02:34 Телекинез Скачать торрент  

Я так понимаю по каким-то причинам раздача не поддерживается... Печаль.pb.wtf



    Дорогой пользователь! Огромная просьба, поблагодарите релизера, оцените раздачу и оставьте свои комментарий, если Вы скачали Телекинез через торрент бесплатно! Внесите свою лепту в развитие PiratBit!
    Комментировать посты могут только пользователи прошедшие не сложную регистрацию
    Показать сообщения:    

    Телекинез через торрент
    Скачать бесплатно Телекинез
    Телекинез скачать торрент
    Телекинез смотреть онлайн
    Cкачать фильм Телекинез бесплатно
    Телекинез скачать торрент в хорошем качестве
    Телекинез смотреть онлайн бесплатно в хорошем качестве


    Вы не можете начинать темы
    Вы не можете отвечать на сообщения
    Вы не можете редактировать свои сообщения
    Вы не можете удалять свои сообщения
    Вы не можете голосовать в опросах
    Вы не можете прикреплять файлы к сообщениям
    Вы можете скачивать файлы