Ссылка на приватное зеркало нашего сайта всего за 1$. Внимание количество ограничено!!!

2 сезон

iTunes

1 сезон

1

2 сезон

2 сезон

iTunes

1 сезон

RePack

30

Новинка

ВАЖНО

ИГРА 18+

pack

RePack

MK11
pack

Забери бонус

RePack

jed

!!Акция!!

Alien_Rage

RePack

fifa19

RePack

Assassins Creed: Odyssey

RePack

NEED FOR SPEED™ PAYBACK

4 сезон

9 сезон

Бесстыжие 9 сезон

Все сериалы

все сериалы на PB.wtf

RePack

FAR CRY 5
  

Флеминг (мини-сериал) / Fleming / Сезон: 1 / Серии: 1-4 из 4 (Мат Уайткросс) [2014, Великобритания, драма, биография, WEB-DL 720p] MVO [DD LostFilm 5.1] + Original pb.wtf

Флеминг через торрент pb.wtf

Размер: 6 GB | Добавлен: 6 лет 9 мес. назад | Торрент скачан:83 раза
Скачать  

04-02-2014 12:37 Флеминг Скачать торрент  

Флеминг (мини-сериал) / Fleming

Год выпуска: 2014
Страна: Великобритания
Жанр: драма, биография
Продолжительность: 00:44:30
Перевод:
|Профессиональный (многоголосый, закадровый) LostFilm|
Субтитры: Английские
Режиссер: Мат Уайткросс / Mat Whitecross
В ролях: Анна Чэнселлор (Second Officer Monday), Доминик Купер (Ian Fleming), Руперт Эванс (Peter Fleming), Лесли Мэнвилл (Evelyn Fleming), Лара Пулвер (Ann O'Neill), Камилла Разерфорд (Loelia, Duchess of Westminster), Пип Торренс (Esmond Rothermere), Сэмюэл Уэст (Rear Admiral John Godfrey), Ли Асквит-Коу (Marine Cowie), Дин Леннокс Келли (Sergeant Dixon), Антония Томас (Jazz Singer), Стэнли Таунсенд (Colonel William Donovan)
Описание:
Мини-сериал, состоящий из четырех эпизодов, расскажет захватывающую историю Яна Флеминга, чья собственная жизнь и авантюрные приключения вдохновили его на создание одного из самых культовых персонажей современной литературы – Джеймса Бонда.
Как из прожигателя жизни превратиться в шпиона мирового уровня? Как использовать неуемную тягу к риску на благо страны и для повышения уровня адреналина в своей крови? Будущий всемирно известный писатель Иэн Флеминг — очаровательный и изысканный одиночка, искатель приключений и белая ворона. Все свое время он тратит на то, чтобы развлекаться. Красивые женщины, азартные игры, шикарные автомобили и катера — он ни в чем себе не отказывает и отрывается по полной программе. Но что-то Иэну не хватает... Да и родственники им не очень-то довольны. Действие шоу разворачивается в предвоенное время, и однажды Флемингу выпадает шанс проявить себя — его вербуют в разведку. И жизнь этого красивого и умного мужчины приобретает новый смысл. Иэн получает шанс доказать свою состоятельность, реализовать амбиции, стать героем. Сначала он рассматривает новую работу как очередное большое приключение, но очень скоро Флеминг понимает, где могут пригодиться его таланты ловеласа и позера. Оказывается, у него есть все задатки для того, чтобы стать... Идеальным шпионом. Так Иэн оказывается среди людей, творящих историю, в гуще событий, в центре самых опасных операций, в том числе, против нацистов. Зрителю предоставляется уникальная возможность заглянуть за кулисы разведки, узнать все тонкости и хитрости вербовки лучших людей для MI6, а также — что не менее интересно — познакомиться с внутренними демонами Флеминга. Человека, который стал прототипом Джеймса Бонда.
Рейтинг

Качество: WEB-DL 720p
Формат: MKV
Видео кодек: AVC
Аудио кодек: AC3
Видео: AVC, 960x718@1280x718 (16:9), 4108 kbps, 25 fps, 0,238 bpp
Аудио №1: русский / AC3 / 5.1 / 48 kHz / 384 kbps / 16 bit ||
Аудио №2: английский / AC3 / 5.1 / 48 kHz / 384 kbps / 16 bit

Оформление: Messa-fan
Релиз:
Работа со звуком: k-marat-s
General
Unique ID : 209663659286856023490732304044474050007 (0x9DBBC080E962DAE5B2528EE1B43D25D7)
Complete name : Fleming s01 720pFleming.S01E01.720p.WEB-DL.mkv
Format : Matroska
Format version : Version 4 / Version 2
File size : 1.55 GiB
Duration : 44mn 30s
Overall bit rate : 4 976 Kbps
Movie name : Fleming s01e01 by k-marat-s
Encoded date : UTC 2014-02-04 08:26:43
Writing application : mkvmerge v6.7.0 ('Back to the Ground') 64bit built on Jan 8 2014 15:10:52
Writing library : libebml v1.3.0 + libmatroska v1.4.1

Video
ID : 1
Format : AVC
Format/Info : Advanced Video Codec
Format profile : Main@L3.1
Format settings, CABAC : No
Format settings, ReFrames : 2 frames
Format settings, GOP : N=1
Codec ID : V_MPEG4/ISO/AVC
Duration : 44mn 30s
Bit rate : 4 109 Kbps
Width : 960 pixels
Height : 718 pixels
Display aspect ratio : 16:9
Frame rate : 25.000 fps
Color space : YUV
Chroma subsampling : 4:2:0
Bit depth : 8 bits
Scan type : Progressive
Bits/(Pixel*Frame) : 0.238
Stream size : 1.28 GiB (83%)
Title : Fleming s01e01 by k-marat-s
Language : English
Default : Yes
Forced : No
Color primaries : BT.709-5, BT.1361, IEC 61966-2-4, SMPTE RP177
Transfer characteristics : BT.709-5, BT.1361
Matrix coefficients : BT.709-5, BT.1361, IEC 61966-2-4 709, SMPTE RP177

Audio #1
ID : 2
Format : AC-3
Format/Info : Audio Coding 3
Mode extension : CM (complete main)
Codec ID : A_AC3
Duration : 44mn 30s
Bit rate mode : Constant
Bit rate : 384 Kbps
Channel(s) : 6 channels
Channel positions : Front: L C R, Side: L R, LFE
Sampling rate : 48.0 KHz
Bit depth : 16 bits
Compression mode : Lossy
Stream size : 122 MiB (8%)
Title : LostFilm
Language : Russian
Default : Yes
Forced : No

Audio #2
ID : 3
Format : AC-3
Format/Info : Audio Coding 3
Mode extension : CM (complete main)
Codec ID : A_AC3
Duration : 44mn 30s
Bit rate mode : Constant
Bit rate : 384 Kbps
Channel(s) : 6 channels
Channel positions : Front: L C R, Side: L R, LFE
Sampling rate : 48.0 KHz
Bit depth : 16 bits
Compression mode : Lossy
Stream size : 122 MiB (8%)
Title : English
Language : English
Default : No
Forced : No

Text
ID : 4
Format : UTF-8
Codec ID : S_TEXT/UTF8
Codec ID/Info : UTF-8 Plain Text
Title : eng-sub
Language : English
Default : No
Forced : No


Внимание! Раздача ведётся путём добавления новых серий; при каждом добавлении создётся новый торрент. Чтобы начать докачку новой серии, пользователям необходимо сделать следующее:
(1) остановить скачивание,
(2) удалить старый торрент у себя из клиента (старые серии удалять не надо),
(3) скачать новый торрент и запустить его у себя в клиенте вместо старого, при этом указать клиенту путь в старую папку куда и должно происходить скачивание новых серий.
Ваш клиент при этом должен произвести хеширование (проверку) старой папки (если не производит сам - помогите ему сделать это), и будет докачивать только те серии которых у вас ещё нет. Старые серии при этом не удаляются, а продолжают раздаваться!
Eсли вы уже удалили старые серии, то предотвратить повторную закачку старых серий можно, отжав галочку в соответсвующих местах при запуске нового торрента. По возможности, желательно не удалять старые серии как можно дольше чтобы релизёр не столько продолжал раздавать старые серии, а смог сконцентрироваться на новых.

Добавлена 4 серия!
Сезон / сериал окончен.

pb.wtf



Скачать Флеминг через торрент http://i33.fastpic.ru/big/2014/0204/b3/e9af3cdd2d43851e6b4888450a5ec6b3.jpeg Скачать фильм Флеминг через торрент бесплантно в хорошем качестве Описание: Мини-сериал, состоящий из четырех эпизодов, расскажет захватывающую историю Яна Флеминга, чья собственная жизнь и авантюрные ... 9.6 10 8
Info! Золотая раздача, скачанное не засчитывается.
Торрент: Зарегистрирован [2014-02-24 11:42] · скачан: 83 раз
Статус: √ проверено
Размер: 6 GB
Как cкачать? Как скачать Флеминг через торрент | qTorrent

% Раздел Тема Автор DL S | L
Зарубежные сериалы [ 190.8 GB ] Пуаро Агаты Кристи / Agatha Christie Poirot Collection / Сезон: 1-12 / Серии: 65 +Бонус [1989-2010 DVDRip] MVO Original + SUB Assasinca Скачать
1 | 0


Последний раз редактировалось: Messa-fan (2014-02-24 11:42), всего редактировалось 2 раз(а)

28-11-2019 20:33  

Отключить всю рекламу на сайте

10-02-2014 17:45 Флеминг Скачать торрент  


Добавлена 2 серия!

pb.wtf



15-02-2014 20:23 Флеминг Скачать торрент  


Добавлена 3 серия!

pb.wtf



24-02-2014 11:43 Флеминг Скачать торрент  


Добавлена 4 серия!
Сезон / сериал окончен.

pb.wtf



    Дорогой пользователь! Огромная просьба, поблагодарите релизера, оцените раздачу и оставьте свои комментарий, если Вы скачали Флеминг через торрент бесплатно! Внесите свою лепту в развитие PiratBit!
    Комментировать посты могут только пользователи прошедшие не сложную регистрацию
    Показать сообщения:    

    Флеминг через торрент
    Скачать бесплатно Флеминг
    Флеминг скачать торрент
    Флеминг смотреть онлайн
    Cкачать фильм Флеминг бесплатно
    Флеминг скачать торрент в хорошем качестве
    Флеминг смотреть онлайн бесплатно в хорошем качестве


    Вы не можете начинать темы
    Вы не можете отвечать на сообщения
    Вы не можете редактировать свои сообщения
    Вы не можете удалять свои сообщения
    Вы не можете голосовать в опросах
    Вы не можете прикреплять файлы к сообщениям
    Вы можете скачивать файлы