2 сезон

iTunes

MVO

1

2 сезон

iTunes

iTunes

1 сезон

RePack

30

Новинка

ВАЖНО

ИГРА 18+

pack

RePack

MK11
pack

Легкие деньги

RePack

jed

RePack

fifa19

RePack

RDR2

RePack

NEED FOR SPEED™ PAYBACK

4 сезон

9 сезон

Бесстыжие 9 сезон

Все сериалы

все сериалы на PB.wtf

RePack

FAR CRY 5

Anonymous, доброй ночи, мы не успеваем собрать деньги на оплату серверов за декабрь и январь, помогите нам пожалуйста в это трудное время. В качестве благодарности мы отключим Вам всю рекламу на сайте (укажите свой ник в строку Ваше имя)!

×
  
Magnet ссылка

Паганини: Скрипач Дьявола / The Devil's Violinist (Бернард Роуз) [2013 г., драма, биография, WEB-DLRip, Дубляж] iTunes pb.wtf

Паганини: Скрипач Дьявола через торрент pb.wtf

Размер: 2.28 GB | Добавлен: 6 лет 11 мес. назад | Торрент скачан:225 раз
Скачать  

04-02-2014 16:57 Паганини: Скрипач Дьявола Скачать торрент  

Паганини: Скрипач Дьявола / The Devil's Violinist
Год выпуска: 2013
Страна: Германия, Италия / Summer Storm Entertainment, Dor Film Produktionsgesellschaft, Construction Film
Жанр: драма, биография
Продолжительность: 01:57:21
Перевод: Дубляж (iTunes Russia)

Режиссер: Бернард Роуз



В ролях: Дэвид Гэрретт, Джаред Харрис, Андреа Дэк, Кристиан МакКэй, Джоэли Ричардсон, Вероника Феррес, Оливия д’Або, Хельмут Бергер, Томас Антон, Питер Р. Бишоп,

Описание: Имя скрипача Никколо Паганини еще при жизни стало легендой. Что не удивительно, ведь его непревзойденный талант покорил сначала Париж, потом всю Европу, а затем и весь мир. Сама личность Паганини, окутанная ореолом мистики и таинственности, неизбежно привела к возникновению самых разнообразных слухов. Среди них была и уверенность в том, что он продал душу дьяволу, чтобы обрести свой талант. Слава и развращает, и мучает музыканта, вино и опиум приносят лишь временное утешение, и все больше ощущается странная всепоглощающая пустота…

Во время гастролей в Лондоне Паганини встречает девушку с ангельским голосом и чистой душой, которую, казалось, ему было суждено повстречать. Но сможет ли человек, играющий на дьявольской скрипке, познать счастье? Или за дар придется расплачиваться единственной любовью?

Качество: WEB-DLRip
Формат: AVI
Видео кодек: XviD
Аудио кодек: AC3
Видео: 720x304 (2.37:1), 25 fps, XviD build 50 ~2390 kbps avg, 0.44 bit/pixel
Аудио: 48 kHz, AC3 Dolby Digital, 3/2 (L,C,R,l,r) + LFE ch, ~384 kbps


Общее
Полное имя : G:киноThe.Devil's.Violinist.2013.WEB-DLRip.avi
Формат : AVI
Формат/Информация : Audio Video Interleave
Профиль формата : OpenDML
Размер файла : 2,28 Гбайт
Продолжительность : 1 ч. 57 м.
Общий поток : 2782 Кбит/сек
Программа кодирования : VirtualDubMod 1.5.10.3 | www.virtualdub-fr.org || (build 2550/release)
Библиотека кодирования : VirtualDubMod build 2550/release

Видео
Идентификатор : 0
Формат : MPEG-4 Visual
Профиль формата : Advanced Simple@L5
Параметр BVOP формата : 2
Параметр QPel формата : Нет
Параметр GMC формата : Без точки перехода
Параметр матрицы формата : Default (H.263)
Идентификатор кодека : XVID
Идентификатор кодека/Подсказка : XviD
Продолжительность : 1 ч. 57 м.
Битрейт : 2386 Кбит/сек
Ширина : 720 пикс.
Высота : 304 пикс.
Соотношение сторон : 2,35:1
Частота кадров : 25,000 кадр/сек
Цветовое пространство : YUV
Подвыборка цветности : 4:2:0
Битовая глубина : 8 бит
Тип развёртки : Прогрессивная
Метод сжатия : С потерями
Бит/(Пиксели*Кадры) : 0.436
Размер потока : 1,96 Гбайт (86%)
Библиотека кодирования : XviD 1.2.1 (UTC 2008-12-04)

Аудио
Идентификатор : 1
Формат : AC-3
Формат/Информация : Audio Coding 3
Расширение режима : CM (complete main)
Идентификатор кодека : 2000
Продолжительность : 1 ч. 57 м.
Вид битрейта : Постоянный
Битрейт : 384 Кбит/сек
Канал(ы) : 6 канала(ов)
Расположение каналов : Front: L C R, Side: L R, LFE
Частота : 48,0 КГц
Битовая глубина : 16 бит
Метод сжатия : С потерями
Размер потока : 322 Мбайт (14%)
Выравнивание : Разделение по промежуткам
Продолжительность промежутка : 40 мс. (1,00 видеокадр)
Время предзагрузки промежутка : 500 ms

pb.wtf



Скачать Паганини: Скрипач Дьявола через торрент http://pic.kartinco.top/images/6/9qrve.jpg Скачать фильм Паганини: Скрипач Дьявола через торрент бесплантно в хорошем качестве Описание: Имя скрипача Никколо Паганини еще при жизни стало легендой. Что не удивительно, ведь его непревзойденный талант покорил сначала ... 10 10 8
Info! Золотая раздача, скачанное не засчитывается.
Торрент: Зарегистрирован [2014-02-04 16:57] · скачан: 225 раз
Статус: √ проверено
Размер: 2.28 GB
Как cкачать? Как скачать Паганини: Скрипач Дьявола через торрент | UTorrent

28-11-2019 20:33  

Отключить всю рекламу на сайте

11-02-2014 10:21 Паганини: Скрипач Дьявола Скачать торрент  

спс скачаюpb.wtf



11-02-2014 18:10 Паганини: Скрипач Дьявола Скачать торрент  

yes yes yes yes yes yes yespb.wtf



    Дорогой пользователь! Огромная просьба, поблагодарите релизера, оцените раздачу и оставьте свои комментарий, если Вы скачали Паганини: Скрипач Дьявола через торрент бесплатно! Внесите свою лепту в развитие PiratBit!
    Комментировать посты могут только пользователи прошедшие не сложную регистрацию
    Показать сообщения:    

    Паганини: Скрипач Дьявола через торрент
    Скачать бесплатно Паганини: Скрипач Дьявола
    Паганини: Скрипач Дьявола скачать торрент
    Паганини: Скрипач Дьявола смотреть онлайн
    Cкачать фильм Паганини: Скрипач Дьявола бесплатно
    Паганини: Скрипач Дьявола скачать торрент в хорошем качестве
    Паганини: Скрипач Дьявола смотреть онлайн бесплатно в хорошем качестве


    Вы не можете начинать темы
    Вы не можете отвечать на сообщения
    Вы не можете редактировать свои сообщения
    Вы не можете удалять свои сообщения
    Вы не можете голосовать в опросах
    Вы не можете прикреплять файлы к сообщениям
    Вы можете скачивать файлы