2 сезон

iTunes

MVO

1

2 сезон

iTunes

iTunes

1 сезон

RePack

30

Новинка

ВАЖНО

ИГРА 18+

pack

RePack

MK11
pack

Легкие деньги

RePack

jed

RePack

fifa19

RePack

RDR2

RePack

NEED FOR SPEED™ PAYBACK

4 сезон

9 сезон

Бесстыжие 9 сезон

Все сериалы

все сериалы на PB.wtf

RePack

FAR CRY 5

Anonymous, добрый вечер, мы не успеваем собрать деньги на оплату серверов за декабрь и январь, помогите нам пожалуйста в это трудное время. В качестве благодарности мы отключим Вам всю рекламу на сайте (укажите свой ник в строку Ваше имя)!

×
  
Magnet ссылка

Приключения мышонка / Rodencia y el Diente de la Princesa (Давид Бисбано / David Bisbano) [2012, мультфильм, семейный, DVD5] R5 pb.wtf

Приключения мышонка через торрент pb.wtf

Размер: 3.34 GB | Добавлен: 6 лет 11 мес. назад | Торрент скачан:73 раза
Скачать  

13-12-2013 21:12 Приключения мышонка Скачать торрент  


Приключения мышонка / Rodencia y el Diente de la Princesa
Страна: Перу, Аргентина
Студия: Red Post Studio, Vista Sur Films
Жанр: мультфильм, семейный
Год выпуска: 2012
Мировая премьера: 11 октября 2012
Российская премьера: 14 ноября 2013, 3D
Дата выхода DVD: 10 декабря 2013
Дата выхода Blu-Ray: 10 декабря 2013
Продолжительность: 01:23:58
Перевод: Профессиональный (дублированный) [Лицензия]
Cубтитры: украинские
Оригинальная аудиодорожка: нет
Режиссер: Давид Бисбано / David Bisbano
Роли озвучивали: Эрнан Браво, Наталия Росминати, Рикардо Эланис, Энрике Порсейана, Серджо Бермехо, Освальдо Салас, Гонсало Уртисбереа, Марсело Чиринос, Хосе Луис Пертикарини, Мария Елена Молина...
Описание: Давным-давно, в густых и широких лесах стояло прекрасное королевство Роденсия — место, где обитали удивительные создания и могущественные волшебники. Приключение, которое произойдёт здесь, расскажет нам о любви между неуклюжим учеником мага маленьким мышонком Эдамом и красивой и уверенной мышкой Бри, которым придётся преодолеть много опасных препятствий, для того чтобы получить силу зубной феи и победить отряд крыс под командованием злого Ротекса, который вторгся в мирное мышиное царство. В таинственной глубине леса магия света и тьмы, любви и обиды столкнутся, а Эдам и Ротекс будут сражаться, и только один выйдет победителем.
Бонусы: нет

Релиз группы:
Качество: DVD5 R5
Формат: DVD-Video
Видео кодек: MPEG2
Аудио кодек: AC3
Видео: PAL 16:9 (720x576(0.502)) MPEG Video, 25,000 кадр/сек, 5207 Кбит/сек
Аудио: Russian (Dolby AC3, 6 ch) 448 Кбит/сек, 48,0 КГц



Title: Prikljuchenija.myshonka.2012.DVD5
Size: 3.34 Gb ( 3 506 254,00 KBytes ) - DVD-5
Enabled regions: 1, 2, 3, 4, 5, 6, 7, 8

VTS_01 :
Play Length: 00:00:08+{00:00:08}+{00:00:08}
Video: PAL 16:9 (720x576) VBR, Auto Pan&Scan, Auto Letterboxed

VTS_02 :
Play Length: 00:00:21+{00:00:21}+{00:00:21}
Video: PAL 16:9 (720x576) VBR, Auto Pan&Scan, Auto Letterboxed
Audio:
Russian (Dolby AC3, 2 ch)

VTS_03 :
Play Length: 01:23:58
Video: PAL 16:9 (720x576) VBR, Auto Pan&Scan, Auto Letterboxed
Audio:
Ukrainian (Dolby AC3, 6 ch)
Subtitles:
Ukrainian

* Menus Information *

VIDEO_TS Menu
Video:
PAL 16:9 (720x576) VBR
Auto Pan&Scan, Auto Letterboxed
English Language Unit :
Title Menu

VTS_01 Menu
Video:
PAL 16:9 (720x576) VBR
Auto Letterboxed
Audio:
Not specified (Dolby AC3, 2 ch)
English Language Unit :
Root Menu
Chapter (PTT) Menu

VTS_02 Menu
Video:
PAL 4:3 (720x576) VBR
English Language Unit :
Root Menu
Chapter (PTT) Menu

VTS_03 Menu
Video:
PAL 4:3 (720x576) VBR
English Language Unit :
Root Menu
Subpicture Menu
Chapter (PTT) Menu
Общее
Полное имя : D:Новинки 2013Prikljuchenija.myshonka.2012.DVD5VIDEO_TSVTS_03_1.VOB
Формат : MPEG-PS
Размер файла : 1024 Мбайт
Продолжительность : 24 м.
Режим общего битрейта : Переменный
Общий поток : 5770 Кбит/сек

Видео
Идентификатор : 224 (0xE0)
Формат : MPEG Video
Версия формата : Version 2
Профиль формата : Main@Main
Параметр BVOP формата : Да
Параметр матрицы формата : Выборочная
Параметр GOP формата : M=3, N=15
Продолжительность : 24 м.
Вид битрейта : Переменный
Битрейт : 5207 Кбит/сек
Максимальный битрейт : 8000 Кбит/сек
Ширина : 720 пикселей
Высота : 576 пикселей
Соотношение сторон : 16:9
Частота кадров : 25,000 кадров/сек
Стандарт вещания : PAL
Цветовое пространство : YUV
Субдискретизация насыщенности : 4:2:0
Битовая глубина : 8 бит
Тип развёртки : Чересстрочная
Порядок развёртки : Верхнее поле первое
Метод сжатия : С потерями
Бит/(Пиксели*Кадры) : 0.502
Временной код первого кадра : 00:00:00:00
Оригинал временного кода : Group of pictures header
Размер потока : 924 Мбайт (90%)

Аудио
Идентификатор : 189 (0xBD)-128 (0x80)
Формат : AC-3
Формат/Информация : Audio Coding 3
Расширение режима : CM (complete main)
Параметр Endianness формата : Big
Режим смешивания : DVD-Video
Продолжительность : 24 м.
Вид битрейта : Постоянный
Битрейт : 448 Кбит/сек
Каналы : 6 каналов
Расположение каналов : Front: L C R, Side: L R, LFE
Частота : 48,0 КГц
Битовая глубина : 16 бит
Метод сжатия : С потерями
Размер потока : 79,5 Мбайт (8%)

Текст
Идентификатор : 189 (0xBD)-32 (0x20)
Формат : RLE
Формат/Информация : Run-length encoding
Режим смешивания : DVD-Video










pb.wtf



Скачать Приключения мышонка через торрент http://i57.fastpic.ru/big/2013/1213/35/36be392afbb5444ae605035d5783f435.jpg Скачать фильм Приключения мышонка через торрент бесплантно в хорошем качестве Описание: Давным-давно, в густых и широких лесах стояло прекрасное королевство Роденсия — место, где обитали удивительные создания и ... 10 10 3
Info! Золотая раздача, скачанное не засчитывается.
Торрент: Зарегистрирован [2014-02-05 08:25] · скачан: 73 раз
Статус: √ проверено
Размер: 3.34 GB
Как cкачать? Как скачать Приключения мышонка через торрент | UTorrent

28-11-2019 20:33  

Отключить всю рекламу на сайте

    Дорогой пользователь! Огромная просьба, поблагодарите релизера, оцените раздачу и оставьте свои комментарий, если Вы скачали Приключения мышонка через торрент бесплатно! Внесите свою лепту в развитие PiratBit!
    Комментировать посты могут только пользователи прошедшие не сложную регистрацию
    Показать сообщения:    

    Приключения мышонка через торрент
    Скачать бесплатно Приключения мышонка
    Приключения мышонка скачать торрент
    Приключения мышонка смотреть онлайн
    Cкачать фильм Приключения мышонка бесплатно
    Приключения мышонка скачать торрент в хорошем качестве
    Приключения мышонка смотреть онлайн бесплатно в хорошем качестве


    Вы не можете начинать темы
    Вы не можете отвечать на сообщения
    Вы не можете редактировать свои сообщения
    Вы не можете удалять свои сообщения
    Вы не можете голосовать в опросах
    Вы не можете прикреплять файлы к сообщениям
    Вы можете скачивать файлы