Ссылка на приватное зеркало нашего сайта всего за 1$. Внимание количество ограничено!!!

2 сезон

iTunes

1 сезон

1

iTunes

iTunes

iTunes

1 сезон

RePack

30

ИГРА 18+

pack

ВАЖНО

!!Акция!!

Alien_RageХит недели

RePack

MK11
pack

Забери бонус

RePack

jed

!!Акция!!

Alien_Rage

RePack

fifa19

RePack

Assassins Creed: Odyssey

RePack

NEED FOR SPEED™ PAYBACK

4 сезон

9 сезон

Бесстыжие 9 сезон

Все сериалы

все сериалы на PB.wtf

RePack

FAR CRY 5
  

Облачно, возможны осадки: Месть ГМО / Cloudy 2: Revenge of the Leftovers (Коуди Камерон / Cody Cameron, Крис Пирн / Kris Pearn) [2013 г., Мультфильм, фантастика, комедия, семейный, BDRip-AVC] Лицензия pb.wtf

Облачно, возможны осадки: Месть ГМО через торрент pb.wtf

Размер: 2.19 GB | Добавлен: 6 лет 8 мес. назад | Торрент скачан:1187 раз
Скачать  

05-02-2014 13:02 Облачно, возможны осадки: Месть ГМО Скачать торрент  

Облачно возможны осадки: Месть ГМО / Cloudy 2: Revenge of the Leftovers
Год выпуска: 2013
Страна: США / Columbia Pictures, Sony Pictures Animation, Sony Pictures Imageworks
Жанр: Мультфильм, фантастика, комедия, семейный,
Продолжительность: 01:34:49
Перевод: Дубляж [BD CEE]
Субтитры: Русские, английские (Full + SDH + SDH-Colored)

Режиссер: Коуди Камерон / Cody Cameron, Крис Пирн / Kris Pearn



В ролях: Энди Сэмберг, Анна Фэрис, Нил Патрик Харрис, Терри Крюс, Джеймс Каан, Кристен Шол, Бенджамин Брэтт, Билл Хэйдер, Уилл Форте

Описание: Все жители острова Поплавок покинули родной дом после событий предыдущего мультфильма. Главный герой Флинт Локвуд теперь работает в компании The Live Corp на своего кумира Честера. Но ему придется оставить свой пост когда он узнает, что его печально-известная машина все ещё работает и производит на свет опасных гибридов. Флинту предстоит ещё раз спасти мир и не дать коварной машине распространить громадную еду по всему миру.

Качество: BDRip-AVC
Формат: MKV
Видео кодек: H.264
Аудио кодек: AC3
Видео: 1200x500 (2,40:1), 23,976 fps, 2402 Кbps, 0.167 bit/pixel
Аудио#1: 48 kHz, AC3 Dolby Digital, 3/2 (L,C,R,l,r) + LFE ch, 448.00 kbps | RUS
Аудио#2: 48 kHz, AC3 Dolby Digital, 3/2 (L,C,R,l,r) + LFE ch, 448.00 kbps | ENG

Релиз группы:
Автор рипа: potroks





Общее
Уникальный идентификатор : 247126961130938976259087471150639406173 (0xB9EAEBE432425CFC92247E036420DC5D)
Полное имя : Oblachno...2.Mest'.GMO.2013.DUAL.BDRip.x264-HELLYWOOD.mkv
Формат : Matroska
Версия формата : Version 4 / Version 2
Размер файла : 2,19 Гбайт
Продолжительность : 1 ч. 34 м.
Общий поток : 3301 Кбит/сек
Название фильма : HELLYWOOD - rip by potroks
Дата кодирования : UTC 2014-02-05 12:36:42
Программа кодирования : mkvmerge v5.9.0 ('On The Loose') built on Dec 15 2012 16:39:58
Библиотека кодирования : libebml v1.3.0 + libmatroska v1.4.0

Видео
Идентификатор : 1
Формат : AVC
Формат/Информация : Advanced Video Codec
Профиль формата : High@L4.1
Параметр CABAC формата : Да
Параметр ReFrames формата : 12 кадров
Идентификатор кодека : V_MPEG4/ISO/AVC
Продолжительность : 1 ч. 34 м.
Битрейт : 2402 Кбит/сек
Ширина : 1200 пикселей
Высота : 500 пикселей
Соотношение сторон : 2,40:1
Режим частоты кадров : Постоянный
Частота кадров : 23,976 кадра/сек
Цветовое пространство : YUV
Субдискретизация насыщенности : 4:2:0
Битовая глубина : 8 бит
Тип развёртки : Прогрессивная
Бит/(Пиксели*Кадры) : 0.167
Размер потока : 1,55 Гбайт (71%)
Заголовок : Cloudy with a Chance of Meatballs 2
Библиотека кодирования : x264 core 130 r2273 b3065e6
Настройки программы : cabac=1 / ref=12 / deblock=1:-1:-1 / analyse=0x3:0x133 / me=umh / subme=11 / psy=1 / psy_rd=1.02:0.00 / mixed_ref=1 / me_range=32 / chroma_me=1 / trellis=2 / 8x8dct=1 / cqm=0 / deadzone=21,11 / fast_pskip=0 / chroma_qp_offset=-2 / threads=6 / lookahead_threads=8 / sliced_threads=0 / nr=0 / decimate=0 / interlaced=0 / bluray_compat=0 / constrained_intra=0 / bframes=13 / b_pyramid=2 / b_adapt=2 / b_bias=0 / direct=3 / weightb=1 / open_gop=0 / weightp=2 / keyint=250 / keyint_min=23 / scenecut=40 / intra_refresh=0 / rc_lookahead=60 / rc=2pass / mbtree=0 / bitrate=2402 / ratetol=1.0 / qcomp=0.70 / qpmin=0 / qpmax=69 / qpstep=4 / cplxblur=20.0 / qblur=0.5 / vbv_maxrate=20000 / vbv_bufsize=20000 / nal_hrd=none / ip_ratio=1.35 / pb_ratio=1.25 / aq=1:0.80
Язык : English
Default : Да
Forced : Нет

Аудио #1
Идентификатор : 2
Формат : AC-3
Формат/Информация : Audio Coding 3
Расширение режима : CM (complete main)
Параметр Endianness формата : Big
Идентификатор кодека : A_AC3
Продолжительность : 1 ч. 34 м.
Вид битрейта : Постоянный
Битрейт : 448 Кбит/сек
Каналы : 6 каналов
Расположение каналов : Front: L C R, Side: L R, LFE
Частота : 48,0 КГц
Битовая глубина : 16 бит
Метод сжатия : С потерями
Размер потока : 304 Мбайт (14%)
Заголовок : Dub | DD 5.1 @ 448 kbps
Язык : Russian
Default : Да
Forced : Да

Аудио #2
Идентификатор : 3
Формат : AC-3
Формат/Информация : Audio Coding 3
Расширение режима : CM (complete main)
Параметр Endianness формата : Big
Идентификатор кодека : A_AC3
Продолжительность : 1 ч. 34 м.
Вид битрейта : Постоянный
Битрейт : 448 Кбит/сек
Каналы : 6 каналов
Расположение каналов : Front: L C R, Side: L R, LFE
Частота : 48,0 КГц
Битовая глубина : 16 бит
Метод сжатия : С потерями
Размер потока : 304 Мбайт (14%)
Заголовок : Original | DD 5.1 @ 448 kbps
Язык : English
Default : Нет
Forced : Нет

Текст #1
Идентификатор : 4
Формат : UTF-8
Идентификатор кодека : S_TEXT/UTF8
Идентификатор кодека/Информация : UTF-8 Plain Text
Язык : Russian
Default : Нет
Forced : Нет

Текст #2
Идентификатор : 5
Формат : UTF-8
Идентификатор кодека : S_TEXT/UTF8
Идентификатор кодека/Информация : UTF-8 Plain Text
Заголовок : Full
Язык : English
Default : Нет
Forced : Нет

Текст #3
Идентификатор : 6
Формат : UTF-8
Идентификатор кодека : S_TEXT/UTF8
Идентификатор кодека/Информация : UTF-8 Plain Text
Заголовок : SDH
Язык : English
Default : Нет
Forced : Нет

Текст #4
Идентификатор : 7
Формат : UTF-8
Идентификатор кодека : S_TEXT/UTF8
Идентификатор кодека/Информация : UTF-8 Plain Text
Заголовок : SDH-Colored
Язык : English
Default : Нет
Forced : Нет

Меню
00:00:00.000 : en:(01)00:00:00:000
00:07:12.014 : en:(02)00:07:12:014
00:12:51.520 : en:(03)00:12:51:520
00:18:50.420 : en:(04)00:18:50:420
00:25:58.390 : en:(05)00:25:58:390
00:31:57.081 : en:(06)00:31:57:081
00:36:53.252 : en:(07)00:36:53:252
00:39:28.908 : en:(08)00:39:28:908
00:41:07.840 : en:(09)00:41:07:840
00:45:28.016 : en:(10)00:45:28:016
00:49:48.694 : en:(11)00:49:48:694
00:54:41.403 : en:(12)00:54:41:403
01:00:39.886 : en:(13)01:00:39:886
01:06:47.920 : en:(14)01:06:47:920
01:12:54.953 : en:(15)01:12:54:953
01:21:25.589 : en:(16)01:21:25:589

pb.wtf



Скачать Облачно, возможны осадки: Месть ГМО через торрент http://i59.fastpic.ru/big/2014/0205/a7/08b8592316bd12b82588309e7b221aa7.jpg Скачать фильм Облачно, возможны осадки: Месть ГМО через торрент бесплантно в хорошем качестве Описание: Все жители острова Поплавок покинули родной дом после событий предыдущего мультфильма. Главный герой Флинт Локвуд теперь работает ... 9.3 10 21
Info! Золотая раздача, скачанное не засчитывается.
Торрент: Зарегистрирован [2014-02-05 13:02] · скачан: 1 187 раз
Статус: √ проверено
Размер: 2.19 GB
Как cкачать? Как скачать Облачно, возможны осадки: Месть ГМО через торрент | qTorrent



Последний раз редактировалось: potroks (2014-02-05 13:47), всего редактировалось 1 раз

28-11-2019 20:33  

Отключить всю рекламу на сайте

05-02-2014 13:04 Облачно, возможны осадки: Месть ГМО Скачать торрент  


  pb.wtf



    Дорогой пользователь! Огромная просьба, поблагодарите релизера, оцените раздачу и оставьте свои комментарий, если Вы скачали Облачно, возможны осадки: Месть ГМО через торрент бесплатно! Внесите свою лепту в развитие PiratBit!
    Комментировать посты могут только пользователи прошедшие не сложную регистрацию
    Показать сообщения:    

    Облачно, возможны осадки: Месть ГМО через торрент
    Скачать бесплатно Облачно, возможны осадки: Месть ГМО
    Облачно, возможны осадки: Месть ГМО скачать торрент
    Облачно, возможны осадки: Месть ГМО смотреть онлайн
    Cкачать фильм Облачно, возможны осадки: Месть ГМО бесплатно
    Облачно, возможны осадки: Месть ГМО скачать торрент в хорошем качестве
    Облачно, возможны осадки: Месть ГМО смотреть онлайн бесплатно в хорошем качестве


    Вы не можете начинать темы
    Вы не можете отвечать на сообщения
    Вы не можете редактировать свои сообщения
    Вы не можете удалять свои сообщения
    Вы не можете голосовать в опросах
    Вы не можете прикреплять файлы к сообщениям
    Вы можете скачивать файлы