Ссылка на приватное зеркало нашего сайта всего за 1$. Внимание количество ограничено!!!

2 сезон

iTunes

1 сезон

1

iTunes

iTunes

iTunes

1 сезон

RePack

30

ИГРА 18+

pack

ВАЖНО

!!Акция!!

Alien_RageХит недели

RePack

MK11
pack

Забери бонус

RePack

jed

!!Акция!!

Alien_Rage

RePack

fifa19

RePack

Assassins Creed: Odyssey

RePack

NEED FOR SPEED™ PAYBACK

4 сезон

9 сезон

Бесстыжие 9 сезон

Все сериалы

все сериалы на PB.wtf

RePack

FAR CRY 5
  

Монстры на каникулах / Hotel Transylvania (Генндий Тартаковский) [2012, мультфильм, фэнтези, комедия, семейный, HDRip-AVC] DUB [Лицензия] от R.G. PiratFilms pb.wtf

Монстры на каникулах через торрент pb.wtf

Размер: 1.45 GB | Добавлен: 6 лет 8 мес. назад | Торрент скачан:2099 раз
Скачать  

06-02-2014 03:49 Монстры на каникулах Скачать торрент  

Монстры на каникулах / Hotel Transylvania
«Будет страшно смешно»



Год выпуска: 2012
Страна: США
Жанр: мультфильм, фэнтези, комедия, семейный
Продолжительность: 01:31:31
Перевод: Профессиональный (полное дублирование) [Лицензия]

Режиссер: Генндий Тартаковский

В ролях: Адам Сэндлер, Энди Сэмберг, Селена Гомес, Кевин Джеймс, Фрэн Дрешер, Стив Бушеми, Молли Шеннон, Дэвид Спейд, Си-Ло, Джон Ловиц

Описание: Граф Дракула для себя и своей любимой дочки построил хорошо укрытый от посторонних глаз отель, куда монстры со всего света приезжают отдохнуть от семейных забот, повседневной суеты и, конечно… людей. Но вездесущие американские туристы проникают и сюда.

Качество: HDRip-AVC (Rip by Demonessa) [img]http://goo.gl/gli1Xn[/img]
Исходник: BDRip 1080p
Формат: MKV
Видео кодек: H.264
Аудио кодек: AC3
Видео: H.264, 1024*552, 23,976 кадр/сек, 1816 Кбит/сек, 0.134 Бит/(Пиксели*Кадры)
Аудио: AC3, 448 Кбит/сек, 6 каналов, 48,0 КГц

Код:

---[Information] [05.02.2014 21:49:48] x264 [info]: frame I:50    Avg QP:15.34  size: 77635  PSNR Mean Y:47.68 U:49.91 V:49.60 Avg:48.24 Global:47.81
---[Information] [05.02.2014 21:49:48] x264 [info]: frame P:781   Avg QP:19.14  size: 15644  PSNR Mean Y:45.06 U:48.57 V:48.17 Avg:45.85 Global:44.95
---[Information] [05.02.2014 21:49:48] x264 [info]: frame B:1719  Avg QP:20.59  size:  4870  PSNR Mean Y:45.05 U:48.97 V:48.57 Avg:45.90 Global:44.84

Код:

Общее
Уникальный идентификатор         : 204373370635741805850083100684233929279 (0x99C0E1229ABFDDB28736D121A082F23F)
Полное имя                       : G:VideoRip by DemonessaHotel Transylvania Rip by Demonessa.mkv
Формат                           : Matroska
Размер файла                     : 1,45 Гбайт
Продолжительность                : 1 ч. 31 м.
Общий поток                      : 2265 Кбит/сек
Дата кодирования                 : UTC 2014-02-06 04:06:30
Программа кодирования            : mkvmerge v6.5.0 ('Isn't she lovely') built on Oct 20 2013 12:50:05
Библиотека кодирования           : libebml v1.3.0 + libmatroska v1.4.1

Видео
Идентификатор                    : 1
Формат                           : AVC
Формат/Информация                : Advanced Video Codec
Профиль формата                  : High@L4.1
Параметр CABAC формата           : Да
Параметр ReFrames формата        : 8 кадры
Идентификатор кодека             : V_MPEG4/ISO/AVC
Продолжительность                : 1 ч. 31 м.
Битрейт                          : 1816 Кбит/сек
Ширина                           : 1024 пикс.
Высота                           : 552 пикс.
Соотношение сторон               : 1,855
Частота кадров                   : 23,976 кадр/сек
Цветовое пространство            : YUV
Подвыборка цветности             : 4:2:0
Битовая глубина                  : 8 бит
Тип развёртки                    : Прогрессивная
Бит/(Пиксели*Кадры)              : 0.134
Размер потока                    : 1,13 Гбайт (78%)
Заголовок                        : Rip by Demonessa
Библиотека кодирования           : x264 core 138 r2358 9e941d1
Настройки программы              : cabac=1 / ref=8 / deblock=1:-2:-1 / analyse=0x3:0x113 / me=umh / subme=9 / psy=1 / psy_rd=1.00:0.00 / mixed_ref=1 / me_range=32 / chroma_me=1 / trellis=2 / 8x8dct=1 / cqm=0 / deadzone=21,11 / fast_pskip=1 / chroma_qp_offset=-2 / threads=4 / lookahead_threads=1 / sliced_threads=0 / nr=0 / decimate=1 / interlaced=0 / bluray_compat=0 / constrained_intra=0 / bframes=8 / b_pyramid=2 / b_adapt=2 / b_bias=0 / direct=1 / weightb=1 / open_gop=0 / weightp=2 / keyint=240 / keyint_min=23 / scenecut=40 / intra_refresh=0 / rc_lookahead=40 / rc=2pass / mbtree=1 / bitrate=1816 / ratetol=1.0 / qcomp=0.75 / qpmin=10 / qpmax=51 / qpstep=4 / cplxblur=20.0 / qblur=0.5 / ip_ratio=1.40 / aq=1:1.00
Язык                             : English

Аудио
Идентификатор                    : 2
Формат                           : AC-3
Формат/Информация                : Audio Coding 3
Расширение режима                : CM (complete main)
Идентификатор кодека             : A_AC3
Продолжительность                : 1 ч. 31 м.
Вид битрейта                     : Постоянный
Битрейт                          : 448 Кбит/сек
Канал(ы)                         : 6 канала(ов)
Расположение каналов             : Front: L C R, Side: L R, LFE
Частота                          : 48,0 КГц
Битовая глубина                  : 16 бит
Метод сжатия                     : С потерями
Размер потока                    : 293 Мбайт (20%)
Язык                             : Russian

скриншот  скриншот  скриншот  
pb.wtf



Скачать Монстры на каникулах через торрент http://pic.kartinco.top/images/6/83lsy.jpg Скачать фильм Монстры на каникулах через торрент бесплантно в хорошем качестве Описание: Граф Дракула для себя и своей любимой дочки построил хорошо укрытый от посторонних глаз отель, куда монстры со всего света ... 9.8 10 52
Info! Золотая раздача, скачанное не засчитывается.
Торрент: Зарегистрирован [2014-02-06 03:49] · скачан: 2 099 раз
Статус: √ проверено
Размер: 1.45 GB
Как cкачать? Как скачать Монстры на каникулах через торрент | qTorrent

28-11-2019 20:33  

Отключить всю рекламу на сайте

23-04-2014 14:36 Монстры на каникулах Скачать торрент  

Очень забавный мультикpb.wtf



04-09-2014 19:52 Монстры на каникулах Скачать торрент  

Demonessa, спасибо! Дочке очень нравится!))pb.wtf



30-09-2014 09:28 Монстры на каникулах Скачать торрент  

ха-ха класный мультpb.wtf



05-01-2015 09:00 Монстры на каникулах Скачать торрент  

Мультик на 5+!!!!!pb.wtf



    Дорогой пользователь! Огромная просьба, поблагодарите релизера, оцените раздачу и оставьте свои комментарий, если Вы скачали Монстры на каникулах через торрент бесплатно! Внесите свою лепту в развитие PiratBit!
    Комментировать посты могут только пользователи прошедшие не сложную регистрацию
    Показать сообщения:    

    Монстры на каникулах через торрент
    Скачать бесплатно Монстры на каникулах
    Монстры на каникулах скачать торрент
    Монстры на каникулах смотреть онлайн
    Cкачать фильм Монстры на каникулах бесплатно
    Монстры на каникулах скачать торрент в хорошем качестве
    Монстры на каникулах смотреть онлайн бесплатно в хорошем качестве


    Вы не можете начинать темы
    Вы не можете отвечать на сообщения
    Вы не можете редактировать свои сообщения
    Вы не можете удалять свои сообщения
    Вы не можете голосовать в опросах
    Вы не можете прикреплять файлы к сообщениям
    Вы можете скачивать файлы