2 сезон

iTunes

MVO

1

2 сезон

iTunes

iTunes

1 сезон

RePack

30

Новинка

ВАЖНО

ИГРА 18+

pack

RePack

MK11
pack

Легкие деньги

RePack

jed

RePack

fifa19

RePack

RDR2

RePack

NEED FOR SPEED™ PAYBACK

4 сезон

9 сезон

Бесстыжие 9 сезон

Все сериалы

все сериалы на PB.wtf

RePack

FAR CRY 5

Anonymous, доброе утро, мы не успеваем собрать деньги на оплату серверов за декабрь и январь, помогите нам пожалуйста в это трудное время. В качестве благодарности мы отключим Вам всю рекламу на сайте (укажите свой ник в строку Ваше имя)!

×
  
Magnet ссылка

Довольно слов / Enough Said (Николь Холофсенер / Nicole Holofcener) [2013 г., Драма, мелодрама, комедия, BDRip-AVC] MVO (iTunes) + Original (Eng) + Sub (rus., ukr., tng.) pb.wtf

Довольно слов через торрент pb.wtf

Размер: 2.15 GB | Добавлен: 6 лет 11 мес. назад | Торрент скачан:271 раз
Скачать  

06-02-2014 06:09 Довольно слов Скачать торрент  

Довольно слов / Enough Said
Год выпуска: 2013
Страна: США / Fox Searchlight Pictures, Likely Story
Жанр: Драма, мелодрама, комедия,
Продолжительность: 01:32:59
Перевод: Профессиональный многоголосый [iTunes]
Субтитры: Русские, украинские, английские (Full + SDH + SDH-Colored)

Режиссер: Николь Холофсенер / Nicole Holofcener



В ролях: Джулия Луис-Дрейфус, Джеймс Гандольфини, Кэтрин Кинер, Тони Коллетт, Бен Фэлкуон, Ленни Лофтин, Джессика Ст. Клэр, Кристофер Николас Смит, Трэйси Фэирэуэй, Михаэлла Уоткинс,

Описание: Главные роли в этой трогательной романтической комедии от режиссера сериалов «Секс в Большом городе» и «Клиент всегда мертв» исполнили Джеймс Гандольфини, Джулия Луис-Дрейфус и Кэтрин Кинер. После развода Ева (Луис-Дрейфус) знакомится с очаровательным, веселым и тоже разведенным Альбертом (Гандольфини). Пока их отношения развиваются, Ева начинает теснее общаться с Марианной (Кинер), которая не устает жаловаться на своего бывшего мужа. Однако узнав, что Альберт и есть тот самый несносный бывший, Ева задумывается, не пора ли ей изменить свои представления о первом впечатлении и… втором шансе.

Качество: BDRip-AVC
Формат: MKV
Видео кодек: H.264
Аудио кодек: AC3
Видео: 1112x600 (1,85:1), 23,976 fps, 2468 Кbps, 0.154 bit/pixel
Аудио#1: 48 kHz, AC3 Dolby Digital, 3/2 (L,C,R,l,r) + LFE ch, 384.00 kbps | RUS
Аудио#2: 48 kHz, AC3 Dolby Digital, 3/2 (L,C,R,l,r) + LFE ch, 448.00 kbps | ENG

Релиз группы:
Автор рипа: potroks





Общее
Уникальный идентификатор : 192558322515907740707439852935095296195 (0x90DD6249B94C06ACA80E92E97070A0C3)
Полное имя : Dovol'no.Slov.2013.DUAL.BDRip.x264.-HELLYWOOD.mkv
Формат : Matroska
Версия формата : Version 4 / Version 2
Размер файла : 2,15 Гбайт
Продолжительность : 1 ч. 32 м.
Общий поток : 3303 Кбит/сек
Название фильма : HELLYWOOD - rip by potroks
Дата кодирования : UTC 2014-02-06 05:40:14
Программа кодирования : mkvmerge v5.9.0 ('On The Loose') built on Dec 15 2012 16:39:58
Библиотека кодирования : libebml v1.3.0 + libmatroska v1.4.0

Видео
Идентификатор : 1
Формат : AVC
Формат/Информация : Advanced Video Codec
Профиль формата : High@L4.1
Параметр CABAC формата : Да
Параметр ReFrames формата : 11 кадров
Идентификатор кодека : V_MPEG4/ISO/AVC
Продолжительность : 1 ч. 32 м.
Битрейт : 2468 Кбит/сек
Ширина : 1112 пикселей
Высота : 600 пикселей
Соотношение сторон : 1,85:1
Режим частоты кадров : Постоянный
Частота кадров : 23,976 кадра/сек
Цветовое пространство : YUV
Субдискретизация насыщенности : 4:2:0
Битовая глубина : 8 бит
Тип развёртки : Прогрессивная
Бит/(Пиксели*Кадры) : 0.154
Размер потока : 1,56 Гбайт (73%)
Заголовок : Enough Said
Библиотека кодирования : x264 core 130 r2273 b3065e6
Настройки программы : cabac=1 / ref=11 / deblock=1:-2:-2 / analyse=0x3:0x133 / me=umh / subme=11 / psy=1 / psy_rd=1.05:0.00 / mixed_ref=1 / me_range=32 / chroma_me=1 / trellis=2 / 8x8dct=1 / cqm=0 / deadzone=21,11 / fast_pskip=0 / chroma_qp_offset=-2 / threads=9 / lookahead_threads=8 / sliced_threads=0 / nr=0 / decimate=0 / interlaced=0 / bluray_compat=0 / constrained_intra=0 / bframes=12 / b_pyramid=2 / b_adapt=2 / b_bias=0 / direct=3 / weightb=1 / open_gop=0 / weightp=2 / keyint=250 / keyint_min=23 / scenecut=40 / intra_refresh=0 / rc_lookahead=60 / rc=2pass / mbtree=0 / bitrate=2468 / ratetol=1.0 / qcomp=0.70 / qpmin=0 / qpmax=69 / qpstep=4 / cplxblur=20.0 / qblur=0.5 / vbv_maxrate=20000 / vbv_bufsize=25000 / nal_hrd=none / ip_ratio=1.35 / pb_ratio=1.25 / aq=1:0.70
Язык : English
Default : Да
Forced : Нет

Аудио #1
Идентификатор : 2
Формат : AC-3
Формат/Информация : Audio Coding 3
Расширение режима : CM (complete main)
Параметр Endianness формата : Big
Идентификатор кодека : A_AC3
Продолжительность : 1 ч. 32 м.
Вид битрейта : Постоянный
Битрейт : 384 Кбит/сек
Каналы : 6 каналов
Расположение каналов : Front: L C R, Side: L R, LFE
Частота : 48,0 КГц
Битовая глубина : 16 бит
Метод сжатия : С потерями
Размер потока : 255 Мбайт (12%)
Заголовок : MVO | DD 5.1 @ 384 kbps - iTunes
Язык : Russian
Default : Да
Forced : Да

Аудио #2
Идентификатор : 3
Формат : AC-3
Формат/Информация : Audio Coding 3
Расширение режима : CM (complete main)
Параметр Endianness формата : Big
Идентификатор кодека : A_AC3
Продолжительность : 1 ч. 32 м.
Вид битрейта : Постоянный
Битрейт : 448 Кбит/сек
Каналы : 6 каналов
Расположение каналов : Front: L C R, Side: L R, LFE
Частота : 48,0 КГц
Битовая глубина : 16 бит
Метод сжатия : С потерями
Размер потока : 298 Мбайт (14%)
Заголовок : Original | DD 5.1 @ 448 kbps
Язык : English
Default : Нет
Forced : Нет

Текст #1
Идентификатор : 4
Формат : UTF-8
Идентификатор кодека : S_TEXT/UTF8
Идентификатор кодека/Информация : UTF-8 Plain Text
Язык : Russian
Default : Нет
Forced : Нет

Текст #2
Идентификатор : 5
Формат : UTF-8
Идентификатор кодека : S_TEXT/UTF8
Идентификатор кодека/Информация : UTF-8 Plain Text
Язык : Ukrainian
Default : Нет
Forced : Нет

Текст #3
Идентификатор : 6
Формат : UTF-8
Идентификатор кодека : S_TEXT/UTF8
Идентификатор кодека/Информация : UTF-8 Plain Text
Заголовок : SDH-Colored
Язык : English
Default : Нет
Forced : Нет

Текст #4
Идентификатор : 7
Формат : UTF-8
Идентификатор кодека : S_TEXT/UTF8
Идентификатор кодека/Информация : UTF-8 Plain Text
Заголовок : SDH
Язык : English
Default : Нет
Forced : Нет

Текст #5
Идентификатор : 8
Формат : UTF-8
Идентификатор кодека : S_TEXT/UTF8
Идентификатор кодека/Информация : UTF-8 Plain Text
Заголовок : Full
Язык : English
Default : Нет
Forced : Нет

Меню
00:00:00.000 : en:(01)00:00:00:000
00:02:45.999 : en:(02)00:02:45:999
00:07:17.145 : en:(03)00:07:17:145
00:11:07.458 : en:(04)00:11:07:458
00:16:07.132 : en:(05)00:16:07:132
00:18:04.208 : en:(06)00:18:04:208
00:20:06.663 : en:(07)00:20:06:663
00:26:21.413 : en:(08)00:26:21:413
00:28:43.471 : en:(09)00:28:43:471
00:30:44.467 : en:(10)00:30:44:467
00:32:58.434 : en:(11)00:32:58:434
00:35:34.173 : en:(12)00:35:34:173
00:41:21.479 : en:(13)00:41:21:479
00:44:06.477 : en:(14)00:44:06:477
00:47:11.286 : en:(15)00:47:11:286
00:49:23.001 : en:(16)00:49:23:001
00:54:15.835 : en:(17)00:54:15:835
00:57:41.374 : en:(18)00:57:41:374
00:59:11.839 : en:(19)00:59:11:839
01:02:03.970 : en:(20)01:02:03:970
01:08:48.499 : en:(21)01:08:48:499
01:11:40.212 : en:(22)01:11:40:212
01:14:36.138 : en:(23)01:14:36:138
01:16:12.442 : en:(24)01:16:12:442
01:20:19.940 : en:(25)01:20:19:940
01:23:41.016 : en:(26)01:23:41:016
01:26:50.914 : en:(27)01:26:50:914
01:30:26.212 : en:(28)01:30:26:212
01:32:59.365 : en:(29)01:32:59:365

pb.wtf



Скачать Довольно слов через торрент http://i33.fastpic.ru/big/2014/0206/5f/8ad5bf025a5286a26ea0c2ec2621c75f.png Скачать фильм Довольно слов через торрент бесплантно в хорошем качестве Описание: Главные роли в этой трогательной романтической комедии от режиссера сериалов «Секс в Большом городе» и «Клиент всегда мертв» ... 10 10 4
Info! Золотая раздача, скачанное не засчитывается.
Торрент: Зарегистрирован [2014-02-06 06:09] · скачан: 271 раз
Статус: √ проверено
Размер: 2.15 GB
Как cкачать? Как скачать Довольно слов через торрент | UTorrent

% Раздел Тема Автор DL S | L
Фильмы [HD 720p, 1080p] (Хороший звук DUB, MVO) [ 3.86 GB ] Довольно слов / Enough Said [2013 BDRip 720p by msltel] MVO msltel Скачать
1 | 0
Фильмы [HD 720p, 1080p] (Хороший звук DUB, MVO) [ 12.51 GB ] Довольно слов / Enough Said [2013 BDRip 1080p by msltel] MVO msltel Скачать
1 | 0
Фильмы 2013 [DVDrip, WEB-DLRip, HDrip] [ 1.46 GB ] Довольно слов / Enough Said [2013 BDRip многоголосый ] coc900 Скачать
1 | 0
Фильмы (Blu-ray, BD-Remux, HDDVD) [ 25.42 GB ] Довольно слов / Enough Said [2013 BD Remux [] Ворон Скачать
1 | 0
Фильмы 2013 [DVDrip, WEB-DLRip, HDrip] [ 1.37 GB ] Довольно слов / Enough Said [2013 HDRip многоголосый Андрей фил Скачать
1 | 0


Последний раз редактировалось: potroks (2014-02-06 06:20), всего редактировалось 1 раз

28-11-2019 20:33  

Отключить всю рекламу на сайте

06-02-2014 06:17 Довольно слов Скачать торрент  


  pb.wtf



16-02-2014 10:21 Довольно слов Скачать торрент  

Спасибо за раздачу!!! Джеймс Гандольфини помним, скорбим....pb.wtf



    Дорогой пользователь! Огромная просьба, поблагодарите релизера, оцените раздачу и оставьте свои комментарий, если Вы скачали Довольно слов через торрент бесплатно! Внесите свою лепту в развитие PiratBit!
    Комментировать посты могут только пользователи прошедшие не сложную регистрацию
    Показать сообщения:    

    Довольно слов через торрент
    Скачать бесплатно Довольно слов
    Довольно слов скачать торрент
    Довольно слов смотреть онлайн
    Cкачать фильм Довольно слов бесплатно
    Довольно слов скачать торрент в хорошем качестве
    Довольно слов смотреть онлайн бесплатно в хорошем качестве


    Вы не можете начинать темы
    Вы не можете отвечать на сообщения
    Вы не можете редактировать свои сообщения
    Вы не можете удалять свои сообщения
    Вы не можете голосовать в опросах
    Вы не можете прикреплять файлы к сообщениям
    Вы можете скачивать файлы