2 сезон

iTunes

1 сезон

1

iTunes

iTunes

iTunes

1 сезон

RePack

30

ИГРА 18+

pack

ВАЖНО

!!Акция!!

Alien_RageХит недели

RePack

MK11
pack

Забери бонус

RePack

jed

!!Акция!!

Alien_Rage

RePack

fifa19

RePack

Assassins Creed: Odyssey

RePack

NEED FOR SPEED™ PAYBACK

4 сезон

9 сезон

Бесстыжие 9 сезон

Все сериалы

все сериалы на PB.wtf

RePack

FAR CRY 5
  

Три Богатыря. Полная коллекция (Пенталогия) (Константин Бронзит, Илья Максимов, Владимир Торопчин, Сергей Глезин, Константин Феоктистов) [2004-2012 г., Mультфильм, комедия, семейный, BDRip] pb.wtf

Три Богатыря. Полная коллекция через торрент pb.wtf

Размер: 6.91 GB | Добавлен: 6 лет 8 мес. назад | Торрент скачан:564 раза
Скачать  

06-02-2014 08:57 Три Богатыря. Полная коллекция Скачать торрент  

Три Богатыря. Полная коллекция (Пенталогия)
Год выпуска: 2004
Страна: Россия Кинокомпания CTB, Анимационная студия Мельница
Жанр: Mультфильм, комедия, приключения, мюзикл, фэнтези, мелодрама, семейный
Продолжительность: 01:18:46
Перевод: Оригинал

Режиссер: Константин Бронзит Илья Максимов Владимир Торопчин Сергей Глезин Константин Феоктистов
Продюссер: Сергей Сельянов, Александр Боярский, Сергей Глезин
Сценарий: Максим Свешников, Константин Бронзит, Илья Максимов

Премьера в мире: 19 ноября 2005





В ролях: Олег Куликович, Лия Медведева, Дмитрий Высоцкий, Анатолий Петров, Наталья Данилова, Сергей Маковецкий, Иван Краско, Татьяна Иванова...,

Описание: В древнем русском городе Ростове родился в поповской семье сын. Назвали его родители Алешей. А когда он вырос и стал богатырем, то совершил такие подвиги, что стал героем русских былин Алешей Поповичем. Только подвиги его начались с конфуза… Подступила к Ростову тугарская вражеская орда во главе с Тугарином Змеем и потребовала, чтобы жители города выплатили дань. Поповский сын предложил план действий. Народ этот план одобрил и собрал гору золота. Алеша же умудрился собственный план «благополучно» провалить, да с каким треском! И золото упустил, и полгорода разрушил. После чего поклялся — Тугарина Змея изловить и золото вернуть. Отправился Алеша Попович в путь вместе с дедом Тихоном, который мальчика вырастил и воспитал, а чуть позже компанию им составили говорящий конь Юлий, купленный у цыган, почти 16-летняя красавица Любава, ее бабка и их ослик Моисей…

Качество: BDRip
Формат: AVI
Видео кодек: XviD
Аудио кодек: AC3
Видео: Xvid 704x384, 23.98fps, 2 081 Kbps
Аудио: Dolby AC3, 48000Hz, 6ch, 448kbps
Релиз от: ENG1NER





General
Complete name : D:3 богатыря3.Bogatyrya.2004-2012.RUS.BDRip.XviD.AC3.-HQ-ViDEOAlesha.Popovich.I.Tugarin.Zmei.2004.PROPER.RUS.BDRip.XviD.AC3.-HQ-ViDEO.avi
Format : AVI
Format/Info : Audio Video Interleave
File size : 1.45 GiB
Duration : 1h 18mn
Overall bit rate : 2 643 Kbps
Movie name : Алеша Попович и Тугарин Змей (2004)
Director : MECHANICAL ENGINEER (BD-Remux)
Writing application : VirtualDubMod 1.5.10.3 | www.virtualdub-fr.org || (build 2550/release)
Copyright : HQ-ViDEO (www.hq-video.org)
Comment : 01.12.2011

Video
ID : 0
Format : MPEG-4 Visual
Format profile : Advanced Simple@L5
Format settings, BVOP : 1
Format settings, QPel : No
Format settings, GMC : No warppoints
Format settings, Matrix : Custom
Codec ID : XVID
Codec ID/Hint : XviD
Duration : 1h 18mn
Bit rate : 2 186 Kbps
Width : 704 pixels
Height : 384 pixels
Display aspect ratio : 16:9
Frame rate : 23.976 fps
Color space : YUV
Chroma subsampling : 4:2:0
Bit depth : 8 bits
Scan type : Progressive
Compression mode : Lossy
Bits/(Pixel*Frame) : 0.337
Stream size : 1.20 GiB (83%)
Writing library : XviD 64

Audio
ID : 1
Format : AC-3
Format/Info : Audio Coding 3
Mode extension : CM (complete main)
Codec ID : 2000
Duration : 1h 18mn
Bit rate mode : Constant
Bit rate : 448 Kbps
Channel(s) : 6 channels
Channel positions : Front: L C R, Side: L R, LFE
Sampling rate : 48.0 KHz
Bit depth : 16 bits
Compression mode : Lossy
Stream size : 252 MiB (17%)
Alignment : Split accross interleaves
Interleave, duration : 42 ms (1.00 video frame)
Interleave, preload duration : 500 ms

Год выпуска: 2006
Страна: Россия Кинокомпания CTB, Анимационная студия Мельница
Жанр: Mультфильм, комедия, приключения, мюзикл, фэнтези, мелодрама, семейный
Продолжительность: 01:08:08
Перевод: Оригинал

Режиссер: Константин Бронзит Илья Максимов Владимир Торопчин Сергей Глезин Константин Феоктистов
Продюссер: Сергей Сельянов, Александр Боярский, Сергей Глезин
Сценарий: Максим Свешников, Константин Бронзит, Илья Максимов

Премьера в мире: 26 мая 2006





В ролях: Олег Куликович, Лия Медведева, Дмитрий Высоцкий, Анатолий Петров, Наталья Данилова, Сергей Маковецкий, Иван Краско, Татьяна Иванова...

Описание: Отправился Добрыня Никитич спасать княжескую племянницу Забаву из лап Змея Горыныча. Но непросто будет Добрыне и его юному ученику Елисею выполнить задуманное. Не знает Добрыня, и даже не догадывается, что сам Князь поставлен в безвыходное положение и вовсе не заинтересован в возвращении племянницы. Тяжкое испытание предстоит Добрыне – познать горечь предательства. Однако не суждено будет сбыться злодейским планам – даже Баба Яга окажется бессильна перед прямым и честным Добрыней и другом его Елисеем...

Качество: BDRip
Формат: AVI
Видео кодек: XviD
Аудио кодек: AC3
Видео: Xvid 704x384, 23.98fps, 2 594 Kbps
Аудио: Dolby AC3, 48000Hz, 6ch, 448kbps
Релиз от: ENG1NER





General
Complete name : D:3 богатыря3.Bogatyrya.2004-2012.RUS.BDRip.XviD.AC3.-HQ-ViDEODobrynya.Nikitich.I.Zmei.Gorynych.2006.PROPER.RUS.BDRip.XviD.AC3.-HQ-ViDEO.avi
Format : AVI
Format/Info : Audio Video Interleave
File size : 1.45 GiB
Duration : 1h 8mn
Overall bit rate : 3 051 Kbps
Movie name : Добрыня Никитич и Змей Горыныч (2006)
Director : MECHANICAL ENGINEER (BD-Remux)
Writing application : VirtualDubMod 1.5.10.3 | www.virtualdub-fr.org || (build 2550/release)
Copyright : HQ-ViDEO (www.hq-video.org)
Comment : 02.12.2011

Video
ID : 0
Format : MPEG-4 Visual
Format profile : Advanced Simple@L5
Format settings, BVOP : 1
Format settings, QPel : No
Format settings, GMC : No warppoints
Format settings, Matrix : Custom
Codec ID : XVID
Codec ID/Hint : XviD
Duration : 1h 8mn
Bit rate : 2 594 Kbps
Width : 704 pixels
Height : 384 pixels
Display aspect ratio : 16:9
Frame rate : 23.976 fps
Color space : YUV
Chroma subsampling : 4:2:0
Bit depth : 8 bits
Scan type : Progressive
Compression mode : Lossy
Bits/(Pixel*Frame) : 0.400
Stream size : 1.23 GiB (85%)
Writing library : XviD 64

Audio
ID : 1
Format : AC-3
Format/Info : Audio Coding 3
Mode extension : CM (complete main)
Codec ID : 2000
Duration : 1h 8mn
Bit rate mode : Constant
Bit rate : 448 Kbps
Channel(s) : 6 channels
Channel positions : Front: L C R, Side: L R, LFE
Sampling rate : 48.0 KHz
Bit depth : 16 bits
Compression mode : Lossy
Stream size : 218 MiB (15%)
Alignment : Split accross interleaves
Interleave, duration : 42 ms (1.00 video frame)
Interleave, preload duration : 500 ms

Год выпуска: 2007
Страна: Россия Кинокомпания CTB, Анимационная студия Мельница
Жанр: Mультфильм, комедия, приключения, мюзикл, фэнтези, мелодрама, семейный
Продолжительность: 01:19:31
Перевод: Оригинал

Режиссер: Константин Бронзит Илья Максимов Владимир Торопчин Сергей Глезин Константин Феоктистов
Продюссер: Сергей Сельянов, Александр Боярский, Сергей Глезин
Сценарий: Максим Свешников, Константин Бронзит, Илья Максимов

Премьера в мире: 28 июля 2009





В ролях: Олег Куликович, Лия Медведева, Дмитрий Высоцкий, Анатолий Петров, Наталья Данилова, Сергей Маковецкий, Иван Краско, Татьяна Иванова...,

Описание: Славится земля русская богатырями богатырскими да разбойниками разбойничьими… А сверху всего князь княжеский сидит, за всем следит и порядок наводит, если нужно. Да только не всегда выходит у князя так, как нужно — правильно. Вот и сейчас — с богатырём поругался. Деспот и самодур князь Киевский отправляет слишком популярного в народе богатыря Илью Муромца в отставку, конфискует его волшебного коня Буравушку и входит в преступный сговор с Соловьем Разбойником. Да от Соловья Разбойника урон потерпел немалый: увёл бандит окаянный казну государственную прямо из-под носа! Соловей тут же, прихватив казну и коня, отправляется покупать Византию.
Что делать князю? А ничего особенного — на то он и князь, чтоб из любой ситуации выход найти! Вот и отправились по его следу хитрован-князь с временно реабилитированным ратоборцем Ильёй на поиски проказника и похищенного, а за ними вслед увязалась представитель независимой прессы корреспондентка летописи «Новая береста» Аленушка. Куда заведет их эта дорога?
А дорога непростая выдалась, до самого Царьграда довела, где встретил их Император Византийский, да только незадача вышла — повздорили наши герои с императором этим, и заключил он против Князя Киевского и Земель русских союз с Соловьем Разбойником…

Качество: BDRip
Формат: AVI
Видео кодек: XviD
Аудио кодек: AC3
Видео: Xvid 704x384, 23.98fps, 2 165 Kbps
Аудио: Dolby AC3, 48000Hz, 6ch, 448kbps
Релиз от: ENG1NER





General
Complete name : D:3 богатыря3.Bogatyrya.2004-2012.RUS.BDRip.XviD.AC3.-HQ-ViDEOIlya.Muromets.I.Solovei.Razboinik.2007.PROPER.RUS.BDRip.XviD.AC3.-HQ-ViDEO.avi
Format : AVI
Format/Info : Audio Video Interleave
File size : 1.46 GiB
Duration : 1h 19mn
Overall bit rate : 2 622 Kbps
Movie name : Илья Муромец и Соловей Разбойник (2007)
Director : MECHANICAL ENGINEER (BD-Remux)
Writing application : VirtualDubMod 1.5.10.3 | www.virtualdub-fr.org || (build 2550/release)
Copyright : HQ-ViDEO (www.hq-video.org)
Comment : 31.11.2011

Video
ID : 0
Format : MPEG-4 Visual
Format profile : Advanced Simple@L5
Format settings, BVOP : 1
Format settings, QPel : No
Format settings, GMC : No warppoints
Format settings, Matrix : Custom
Codec ID : XVID
Codec ID/Hint : XviD
Duration : 1h 19mn
Bit rate : 2 165 Kbps
Width : 704 pixels
Height : 384 pixels
Display aspect ratio : 16:9
Frame rate : 23.976 fps
Color space : YUV
Chroma subsampling : 4:2:0
Bit depth : 8 bits
Scan type : Progressive
Compression mode : Lossy
Bits/(Pixel*Frame) : 0.334
Stream size : 1.20 GiB (83%)
Writing library : XviD 64

Audio
ID : 1
Format : AC-3
Format/Info : Audio Coding 3
Mode extension : CM (complete main)
Codec ID : 2000
Duration : 1h 19mn
Bit rate mode : Constant
Bit rate : 448 Kbps
Channel(s) : 6 channels
Channel positions : Front: L C R, Side: L R, LFE
Sampling rate : 48.0 KHz
Bit depth : 16 bits
Compression mode : Lossy
Stream size : 255 MiB (17%)
Alignment : Split accross interleaves
Interleave, duration : 42 ms (1.00 video frame)
Interleave, preload duration : 500 ms

Год выпуска: 2010
Страна: Россия Кинокомпания CTB, Анимационная студия Мельница
Жанр: Mультфильм, комедия, приключения, мюзикл, фэнтези, мелодрама, семейный
Продолжительность: 01:16:32
Перевод: Оригинал

Режиссер: Константин Бронзит Илья Максимов Владимир Торопчин Сергей Глезин Константин Феоктистов
Продюссер: Сергей Сельянов, Александр Боярский, Сергей Глезин
Сценарий: Максим Свешников, Константин Бронзит, Илья Максимов

Премьера в мире: 30 декабря 2010





В ролях: Олег Куликович, Лия Медведева, Дмитрий Высоцкий, Анатолий Петров, Наталья Данилова, Сергей Маковецкий, Иван Краско, Татьяна Иванова...

Описание: Легендарная Шамаханская царица, которая сводила с ума многих царей и простых смертных, положила свой глаз и на Киевского князя. Тот заболел любовью странной по ней. Но чтобы доставить в целости и сохранности эту чудо-богиню в Киев-Град, срочно из отпуска вызывают всех троих, уже знакомых нам, богатырей: Алёшу Поповича, Добрыню Никитича и Илью Муромца. Теперь троица должна решить, как быть дальше? Вроде бы и слухи о царице ходят нелестные, и князя жаль.

Качество: BDRip
Формат: AVI
Видео кодек: XviD
Аудио кодек: AC3
Видео: Xvid 704x400, 24.00fps, 2 267 Kbps
Аудио: Dolby AC3, 48000Hz, 6ch, 448kbps
Релиз от: ENG1NER





File size : 1.46 GiB
Duration : 1h 16mn
Overall bit rate : 2 725 Kbps
Movie name : Три богатыря и Шамаханская царица (2010)
Director : MECHANICAL ENGINEER (BD-Remux)
Writing application : VirtualDubMod 1.5.10.3 | www.virtualdub-fr.org || (build 2550/release)
Copyright : HQ-ViDEO (www.hq-video.org)
Comment : 03.12.2011

Video
ID : 0
Format : MPEG-4 Visual
Format profile : Advanced Simple@L5
Format settings, BVOP : 1
Format settings, QPel : No
Format settings, GMC : No warppoints
Format settings, Matrix : Custom
Codec ID : XVID
Codec ID/Hint : XviD
Duration : 1h 16mn
Bit rate : 2 267 Kbps
Width : 704 pixels
Height : 400 pixels
Display aspect ratio : 16:9
Frame rate : 24.000 fps
Color space : YUV
Chroma subsampling : 4:2:0
Bit depth : 8 bits
Scan type : Progressive
Compression mode : Lossy
Bits/(Pixel*Frame) : 0.335
Stream size : 1.21 GiB (83%)
Writing library : XviD 64

Audio
ID : 1
Format : AC-3
Format/Info : Audio Coding 3
Mode extension : CM (complete main)
Codec ID : 2000
Duration : 1h 16mn
Bit rate mode : Constant
Bit rate : 448 Kbps
Channel(s) : 6 channels
Channel positions : Front: L C R, Side: L R, LFE
Sampling rate : 48.0 KHz
Bit depth : 16 bits
Compression mode : Lossy
Stream size : 245 MiB (16%)
Alignment : Split accross interleaves
Interleave, duration : 42 ms (1.00 video frame)
Interleave, preload duration : 500 ms

Год выпуска: 2012
Страна: Россия Кинокомпания CTB, Анимационная студия Мельница
Жанр: Mультфильм, комедия, приключения, мюзикл, фэнтези, мелодрама, семейный
Продолжительность: 01:11:18
Перевод: Оригинал

Режиссер: Константин Бронзит Илья Максимов Владимир Торопчин Сергей Глезин Константин Феоктистов
Продюссер: Сергей Сельянов, Александр Боярский, Сергей Глезин
Сценарий: Максим Свешников, Константин Бронзит, Илья Максимов

Премьера в мире: 27 декабря 2012





В ролях: Олег Куликович, Лия Медведева, Дмитрий Высоцкий, Анатолий Петров, Наталья Данилова, Сергей Маковецкий, Иван Краско, Татьяна Иванова...,

Описание: На этот раз Алеша Попович, Добрыня Никитич и Илья Муромец, благодаря козням коварной Бабы Яги, оказываются за семью морями на острове, на котором живут туземцы и страшный Гомума. В их отсутствие купец Колыван решают вместе с Бабой-Ягой захватить царство и забрать Влacть у князя Киевского. На помощь незадачливому правителю приходит конь Юлий, а также жены богатырей и их многочисленные родственники. Словом, богатырей и зрителей ждут приключения на дальних берегах, обыкновенные и невероятные.

Качество: BDRip
Формат: AVI
Видео кодек: XviD
Аудио кодек: AC3
Видео: Xvid 704x400, 23.98fps, 1 731 Kbps
Аудио: Dolby AC3, 48000Hz, 6ch, 448kbps
Релиз от: ENG1NER
[img]http://pic.kartinco.top/images/6/huqbr.jpg
[/img]





General
Complete name : D:3 богатыря3.Bogatyrya.2004-2012.RUS.BDRip.XviD.AC3.-HQ-ViDEOTri.Bogatyrya.Na.Dalnih.Beregah.2012.RUS.BDRip.XviD.AC3.-HQ-ViDEO.avi
Format : AVI
Format/Info : Audio Video Interleave
File size : 1.09 GiB
Duration : 1h 11mn
Overall bit rate : 2 189 Kbps
Movie name : Три богатыря на дальних берегах (2012)
Director : MECHANICAL ENGINEER (Blu-Ray)
Writing application : VirtualDubMod 1.5.10.3 | www.virtualdub-fr.org || (build 2550/release)
Copyright : HQ-ViDEO (www.hq-video.org)
Comment : 02.02.2013

Video
ID : 0
Format : MPEG-4 Visual
Format profile : Advanced Simple@L5
Format settings, BVOP : 1
Format settings, QPel : No
Format settings, GMC : No warppoints
Format settings, Matrix : Custom
Codec ID : XVID
Codec ID/Hint : XviD
Duration : 1h 11mn
Bit rate : 1 731 Kbps
Width : 704 pixels
Height : 400 pixels
Display aspect ratio : 16:9
Frame rate : 23.976 fps
Color space : YUV
Chroma subsampling : 4:2:0
Bit depth : 8 bits
Scan type : Progressive
Compression mode : Lossy
Bits/(Pixel*Frame) : 0.256
Stream size : 883 MiB (79%)
Writing library : XviD 65

Audio
ID : 1
Format : AC-3
Format/Info : Audio Coding 3
Mode extension : CM (complete main)
Codec ID : 2000
Duration : 1h 11mn
Bit rate mode : Constant
Bit rate : 448 Kbps
Channel(s) : 6 channels
Channel positions : Front: L C R, Side: L R, LFE
Sampling rate : 48.0 KHz
Bit depth : 16 bits
Compression mode : Lossy
Stream size : 228 MiB (20%)
Alignment : Split accross interleaves
Interleave, duration : 42 ms (1.00 video frame)
Interleave, preload duration : 500 ms

pb.wtf



Скачать Три Богатыря. Полная коллекция через торрент http://pic.kartinco.top/images/6/b1ijq.jpg Скачать фильм Три Богатыря. Полная коллекция через торрент бесплантно в хорошем качестве Описание: В древнем русском городе Ростове родился в поповской семье сын. Назвали его родители Алешей. А когда он вырос и стал богатырем, ... 10 10 26
Info! Золотая раздача, скачанное не засчитывается.
Торрент: Зарегистрирован [2014-02-06 08:57] · скачан: 564 раз
Статус: √ проверено
Размер: 6.91 GB
Как cкачать? Как скачать Три Богатыря. Полная коллекция через торрент | qTorrent



Последний раз редактировалось: lug30 (2014-02-06 10:50), всего редактировалось 10 раз(а)

28-11-2019 20:33  

Отключить всю рекламу на сайте

06-02-2014 08:59 Три Богатыря. Полная коллекция Скачать торрент  

еще недооформил,сделаю скороpb.wtf



07-02-2014 11:14 Три Богатыря. Полная коллекция Скачать торрент  

автор спасибо) pb.wtf



    Дорогой пользователь! Огромная просьба, поблагодарите релизера, оцените раздачу и оставьте свои комментарий, если Вы скачали Три Богатыря. Полная коллекция через торрент бесплатно! Внесите свою лепту в развитие PiratBit!
    Комментировать посты могут только пользователи прошедшие не сложную регистрацию
    Показать сообщения:    

    Три Богатыря. Полная коллекция через торрент
    Скачать бесплатно Три Богатыря. Полная коллекция
    Три Богатыря. Полная коллекция скачать торрент
    Три Богатыря. Полная коллекция смотреть онлайн
    Cкачать фильм Три Богатыря. Полная коллекция бесплатно
    Три Богатыря. Полная коллекция скачать торрент в хорошем качестве
    Три Богатыря. Полная коллекция смотреть онлайн бесплатно в хорошем качестве


    Вы не можете начинать темы
    Вы не можете отвечать на сообщения
    Вы не можете редактировать свои сообщения
    Вы не можете удалять свои сообщения
    Вы не можете голосовать в опросах
    Вы не можете прикреплять файлы к сообщениям
    Вы можете скачивать файлы