Ссылка на приватное зеркало нашего сайта всего за 1$. Внимание количество ограничено!!!

2 сезон

iTunes

1 сезон

1

2 сезон

2 сезон

iTunes

1 сезон

RePack

30

Новинка

ВАЖНО

ИГРА 18+

pack

RePack

MK11
pack

Забери бонус

RePack

jed

!!Акция!!

Alien_Rage

RePack

fifa19

RePack

Assassins Creed: Odyssey

RePack

NEED FOR SPEED™ PAYBACK

4 сезон

9 сезон

Бесстыжие 9 сезон

Все сериалы

все сериалы на PB.wtf

RePack

FAR CRY 5
  

Индюки: Назад в будущее / Free Birds ( Джимми Хейуорд / Jimmy Hayward) [2013, Мультфильм, Комедия, Приключения, Семейный , BDRemux 1080p ] Дублированный pb.wtf

Индюки: Назад в будущее через торрент pb.wtf

Размер: 20.29 GB | Добавлен: 6 лет 9 мес. назад | Торрент скачан:42 раза
Скачать  

06-02-2014 16:46 Индюки: Назад в будущее Скачать торрент  

Индюки: Назад в будущее / Free Birds
«Величайшее путешествие всех времён»






Год выпуска: 2013
Жанр: Мультфильм, Комедия, Приключения, Семейный
Выпущено: США / Reel FX Creative Studios, Relativity Media
Продолжительность: 01:31:06
Перевод: Дублированный
Субтитры: -





В ролях: Оуэн Уилсон, Вуди Харрельсон, Эми Полер, Джордж Такей, Колм Мини, Кит Дэвид, Дэн Фоглер, Джимми Хейуорд, Кейтлин Мехер, Карлос Аласраки





Режиссер: Джимми Хейуорд / Jimmy Hayward





Рейтинг на IMDB: 5.7/10
Рейтинг на Кинопоиск.RU: 6.4





Описание: Индюк Реджи вырос на обычной ферме, его жизнь была скучной и однообразной, как и у других птиц. Однако он отличался от сородичей тем, что умел пользоваться смекалкой и понимал, зачем его кормят. Поедание индейки на День Благодарения — знаменитая американская традиция, которая определяет смысл существования всех индюков на этой ферме. Однажды у Реджи появилась возможность кардинально изменить ситуацию: вместе с безумным приятелем Джейком они отправляются в необычное путешествие на машине времени. Основная задача — вернуться во времена, когда зарождалась традиция приготовления индейки на праздник, и изменить ход истории.





Качество: BDRemux 1080p
Формат: MKV
Видео кодек: MPEG-2
Аудио кодек: AC3//DTS-HD
Видео: 1920x1080, ~31000 kbps , 24 fps
Аудио 1: DTS-HD MA 5.1, 2176 kbps, 48 kHz [Русский]
Аудио 2: AC3 5.1, 640 kbps, 48 kHz [Русский]











Код:

Полное имя : D:Индюки.Назад.в.будущее-Free.Birds.(2013).BDRemux.[1080p].mkv
Формат : Matroska
Версия формата : Version 2
Размер файла : 20,3 Гбайт
Продолжительность : 1 ч. 31 м.
Режим общего битрейта : Переменный
Общий поток : 31,9 Мбит/сек
Название фильма : Free Birds (2013) / Lelya_K for NNM-Club
Дата кодирования : UTC 2013-12-17 20:49:20
Программа кодирования : mkvmerge v5.7.0 ('The Whirlwind') built on Aug 7 2012 14:11:40
Библиотека кодирования : libebml v1.2.3 + libmatroska v1.3.0
Attachment : Yes

Видео
Идентификатор : 1
Формат : MPEG Video
Версия формата : Version 2
Профиль формата : Main@High
Параметр BVOP формата : Нет
Параметр матрицы формата : По умолчанию
Идентификатор кодека : V_MPEG2
Идентификатор кодека/Информация : MPEG 1 or 2 Video
Продолжительность : 1 ч. 31 м.
Битрейт : 29,0 Мбит/сек
Максимальный битрейт : 31,0 Мбит/сек
Ширина : 1920 пикселей
Высота : 1080 пикселей
Соотношение сторон : 16:9
Режим частоты кадров : Постоянный
Частота кадров : 24,000 кадра/сек
Цветовое пространство : YUV
Субдискретизация насыщенности : 4:2:0
Битовая глубина : 8 бит
Метод сжатия : С потерями
Бит/(Пиксели*Кадры) : 0.584
Размер потока : 18,5 Гбайт (91%)
Заголовок : Индюки.Назад.в.будущее-Free.Birds.(2013).BDRemux.[1080p]
Язык : English
Default : Да
Forced : Нет

Аудио #1
Идентификатор : 2
Формат : DTS
Формат/Информация : Digital Theater Systems
Профиль формата : MA / Core
Идентификатор кодека : A_DTS
Продолжительность : 1 ч. 31 м.
Вид битрейта : Переменный
Битрейт : 1561 Кбит/сек / 1510 Кбит/сек
Каналы : 6 каналов
Расположение каналов : Front: L C R, Side: L R, LFE
Частота : 48,0 КГц
Битовая глубина : 16 бит
Метод сжатия : Без потерь / Lossy
Заголовок : DTS-HD MA 5.1 / 2176 kbps / Dub
Язык : Russian
Default : Да
Forced : Нет

Аудио #2
Идентификатор : 3
Формат : AC-3
Формат/Информация : Audio Coding 3
Расширение режима : CM (complete main)
Параметр Endianness формата : Big
Идентификатор кодека : A_AC3
Продолжительность : 1 ч. 31 м.
Вид битрейта : Постоянный
Битрейт : 640 Кбит/сек
Каналы : 6 каналов
Расположение каналов : Front: L C R, Side: L R, LFE
Частота : 48,0 КГц
Битовая глубина : 16 бит
Метод сжатия : С потерями
Размер потока : 417 Мбайт (2%)
Заголовок : AC3 5.1 / 640 kbps / Dub
Язык : Russian
Default : Нет
Forced : Нет

Меню
00:00:00.000 : en:Chapter 1
00:08:08.250 : en:Chapter 2
00:15:36.666 : en:Chapter 3
00:21:34.000 : en:Chapter 4
00:29:59.750 : en:Chapter 5
00:39:08.458 : en:Chapter 6
00:45:22.541 : en:Chapter 7
00:51:51.333 : en:Chapter 8
00:59:07.000 : en:Chapter 9
01:07:01.250 : en:Chapter 10
01:15:24.416 : en:Chapter 11
01:22:01.791 : en:Chapter 12

pb.wtf



Скачать Индюки: Назад в будущее через торрент http://i.imgur.com/DY8RCyJ.jpg Скачать фильм Индюки: Назад в будущее через торрент бесплантно в хорошем качестве Описание: Индюк Реджи вырос на обычной ферме, его жизнь была скучной и однообразной, как и у других птиц. Однако он отличался от сородичей ... 10 10 5
Info! Золотая раздача, скачанное не засчитывается.
Торрент: Зарегистрирован [2014-02-06 16:46] · скачан: 42 раз
Статус: √ проверено
Размер: 20.29 GB
Как cкачать? Как скачать Индюки: Назад в будущее через торрент | qTorrent

28-11-2019 20:33  

Отключить всю рекламу на сайте

    Дорогой пользователь! Огромная просьба, поблагодарите релизера, оцените раздачу и оставьте свои комментарий, если Вы скачали Индюки: Назад в будущее через торрент бесплатно! Внесите свою лепту в развитие PiratBit!
    Комментировать посты могут только пользователи прошедшие не сложную регистрацию
    Показать сообщения:    

    Индюки: Назад в будущее через торрент
    Скачать бесплатно Индюки: Назад в будущее
    Индюки: Назад в будущее скачать торрент
    Индюки: Назад в будущее смотреть онлайн
    Cкачать фильм Индюки: Назад в будущее бесплатно
    Индюки: Назад в будущее скачать торрент в хорошем качестве
    Индюки: Назад в будущее смотреть онлайн бесплатно в хорошем качестве


    Вы не можете начинать темы
    Вы не можете отвечать на сообщения
    Вы не можете редактировать свои сообщения
    Вы не можете удалять свои сообщения
    Вы не можете голосовать в опросах
    Вы не можете прикреплять файлы к сообщениям
    Вы можете скачивать файлы