Death Stranding+DLC+АВТОАКТИВАЦИЯ

iTunes

iTunes

iTunes

1

iTunes

iTunes

iTunes

iTunes

iTunes

30
pack

$ от Little Big

ВАЖНО

!!Акция!!

Alien_RageХит недели

RePack

Resident Evil 21

ИГРА 18+

pack

RePack

jed

!!Акция!!

Alien_Rage

RePack

fifa19

RePack

Assassins Creed: Odyssey

RePack

NEED FOR SPEED™ PAYBACK

4 сезон

9 сезон

Бесстыжие 9 сезон

Все сериалы

все сериалы на PB.wtf

RePack

FAR CRY 5
  

Гравитация / Gravity (Альфонсо Куарон) [2013 г., фантастика, триллер, драма, WEB-DL 720p, Дубляж, Лицензия] iTunes pb.wtf

Гравитация через торрент pb.wtf

Размер: 2.8 GB | Добавлен: 6 лет 5 мес. назад | Торрент скачан:285 раз
Скачать  

06-02-2014 20:17 Гравитация Скачать торрент  

Гравитация / Gravity
Год выпуска: 2013
Страна: США, Великобритания
Жанр: фантастика, триллер, драма,
Продолжительность: 01:30:56
Перевод: Дубляж, Лицензия iTunes

Режиссер: Альфонсо Куарон
Продюссер: Альфонсо Куарон, Дэвид Хейман, Стивен Джонс
Сценарий: Альфонсо Куарон, Хонас Куарон, Джордж Клуни

Бюджет: $100 000 000
Премьера в мире: 28 августа 2013




В ролях: Сандра Буллок, Джордж Клуни, Эд Харрис, Орто Игнатиуссен, Пол Шарма, Эми Уоррен, Башер Саваж,

Описание: Доктор Райан Стоун, блестящий специалист в области медицинского инжиниринга, отправляется в свою первую космическую миссию под командованием ветерана астронавтики Мэтта Ковальски, для которого этот полет — последний перед отставкой. Но во время, казалось бы, рутинной работы за бортом случается катастрофа. Шаттл уничтожен, а Стоун и Ковальски остаются совершенно одни; они находятся в связке друг с другом, и все, что они могут, — это двигаться по орбите в абсолютно черном пространстве без всякой связи с Землей и какой-либо надежды на спасение.

Качество: WEB-DL 720p
Формат: MKV
Видео кодек: AVC
Аудио кодек: AC3
Видео: MPEG4(AVC), 1280x532, 23.976 fps, 3932Kbps, (0.241 bit/pixel)
Аудио#1: 48 kHz, AC3 Dolby Digital, 3/2 (L,C,R,l,r) + LFE ch, ~384 kbps
Сэмпл
скриншот   скриншот   скриншот   скриншот  

General
Unique ID : 250901994117238790044802018229378359734 (0xBCC1F76337A1BA80B90EA6F28E6C21B6)
Complete name : C:UsersАндрейMusiciTunesiTunes MediaMoviesГравитация (Gravity)Гравитация (Gravity) (HD).mkv
Format : Matroska
Format version : Version 2
File size : 2.80 GiB
Duration : 1h 30mn
Overall bit rate : 4 404 Kbps
Movie name : Gravitacija.by.PiratBit.Net
Encoded date : UTC 2014-02-06 20:05:27
Writing application : mkvmerge v3.4.0 ('Rapunzel') сборка от May 15 2010 09:38:20
Writing library : libebml v0.8.0 + libmatroska v0.9.0

Video
ID : 1
Format : AVC
Format/Info : Advanced Video Codec
Format profile : Main@L3.1
Format settings, CABAC : No
Format settings, ReFrames : 2 frames
Codec ID : V_MPEG4/ISO/AVC
Duration : 1h 30mn
Bit rate : 3 932 Kbps
Width : 1 280 pixels
Height : 532 pixels
Display aspect ratio : 2.40:1
Frame rate mode : Constant
Frame rate : 23.976 fps
Color space : YUV
Chroma subsampling : 4:2:0
Bit depth : 8 bits
Scan type : Progressive
Bits/(Pixel*Frame) : 0.241
Stream size : 2.50 GiB (89%)
Language : English
Default : Yes
Forced : No
Color primaries : BT.709
Transfer characteristics : BT.709
Matrix coefficients : BT.709

Audio
ID : 2
Format : AC-3
Format/Info : Audio Coding 3
Mode extension : CM (complete main)
Format settings, Endianness : Big
Codec ID : A_AC3
Duration : 1h 30mn
Bit rate mode : Constant
Bit rate : 384 Kbps
Channel count : 6 channels
Channel positions : Front: L C R, Side: L R, LFE
Sampling rate : 48.0 KHz
Bit depth : 16 bits
Compression mode : Lossy
Stream size : 250 MiB (9%)
Language : Russian
Default : Yes
Forced : No

Menu
00:00:00.000 : en:1.
00:13:08.000 : en:2.
00:21:33.000 : en:3.
00:29:12.000 : en:4.
00:39:59.000 : en:5.
00:48:26.000 : en:6.
00:57:00.000 : en:7.
01:08:08.000 : en:8.
01:14:48.000 : en:9.
01:23:50.000 : en:10.


Гравитация скачать торрент


pb.wtf



Скачать Гравитация через торрент http://pic.kartinco.top/images/6/z9sb3.jpg Скачать фильм Гравитация через торрент бесплантно в хорошем качестве Описание: Доктор Райан Стоун, блестящий специалист в области медицинского инжиниринга, отправляется в свою первую космическую миссию под ... 9.9 10 11
Info! Золотая раздача, скачанное не засчитывается.
Торрент: Зарегистрирован [2014-02-06 20:17] · скачан: 285 раз
Статус: √ проверено
Размер: 2.8 GB
Как cкачать? Как скачать Гравитация через торрент | qTorrent

% Раздел Тема Автор DL S | L
Фильмы 2013 [DVDrip, WEB-DLRip, HDrip] [ 1.34 GB ] Гравитация / Gravity [2013 WEB-DLRip ] Drakosha Скачать
1 | 0
3D Фильмы [ 25.15 GB ] Гравитация / Gravity [2013 BDRemux [3D/2D] Messa-fan Скачать
1 | 0
Фильмы [HD 720p, 1080p] (Хороший звук DUB, MVO) [ 8.16 GB ] Гравитация / Gravity [2013 BDRip1080p [CHD] ] Ворон Скачать
1 | 0
Фильмы [HD 720p, 1080p] (Хороший звук DUB, MVO) [ 3.64 GB ] Гравитация / Gravity [2013 BDRip 720p - / ] от R.G. PiratFilms XLASER Скачать
1 | 0
3D Фильмы [ 11.76 GB ] Гравитация / Gravity [2013 BDRip 1080p OverUnder / Вертикальная анаморфная стереопара gnev78 Скачать
1 | 0
Фильмы (Blu-ray, BD-Remux, HDDVD) [ 15.61 GB ] Гравитация / Gravity [2013 BD Remux [ - / ] Ворон Скачать
1 | 0

28-11-2019 20:33  

Отключить всю рекламу на сайте

07-02-2014 08:31 Гравитация Скачать торрент  

а почему у файла расширение net а не avi или mkvpb.wtf



09-02-2014 10:28 Гравитация Скачать торрент  

Муть мутнаяpb.wtf



    Дорогой пользователь! Огромная просьба, поблагодарите релизера, оцените раздачу и оставьте свои комментарий, если Вы скачали Гравитация через торрент бесплатно! Внесите свою лепту в развитие PiratBit!
    Комментировать посты могут только пользователи прошедшие не сложную регистрацию
    Показать сообщения:    

    Гравитация через торрент
    Скачать бесплатно Гравитация
    Гравитация скачать торрент
    Гравитация смотреть онлайн
    Cкачать фильм Гравитация бесплатно
    Гравитация скачать торрент в хорошем качестве
    Гравитация смотреть онлайн бесплатно в хорошем качестве


    Вы не можете начинать темы
    Вы не можете отвечать на сообщения
    Вы не можете редактировать свои сообщения
    Вы не можете удалять свои сообщения
    Вы не можете голосовать в опросах
    Вы не можете прикреплять файлы к сообщениям
    Вы можете скачивать файлы