новый адрес
Ссылка на приватное зеркало всего за 1$. Внимание количество ограничено!!!

iTunes

1+1

iTunes

мы

iTunes

1

iTunes

Чернобыль

iTunes

Ральф против интернета

Лицензия

ПШазам

Лицензия

Оно 2

Лицензия

30
pack

Вам бонус

ВАЖНО

!!Акция!!

Alien_RageХит недели

RePack

Resident Evil 21

ИГРА 18+

pack

RePack

jed

!!Акция!!

Alien_Rage

RePack

fifa19

RePack

Assassins Creed: Odyssey

RePack

NEED FOR SPEED™ PAYBACK

3 сезон

9 сезон

Бесстыжие 9 сезон

Все сериалы

все сериалы на PB.wtf

RePack

FAR CRY 5
Ребята, катастрофически не хватает 1900р. для оплаты серверов за Октябрь (всвязи с блокировками трафик упал в 3 раза), 1-2р., выручайте.
  

Визит дамы (Михаил Козаков) [1989, Драма, DVDRip] pb.wtf

Визит дамы через торрент pb.wtf

Размер: 2.18 GB | Добавлен: 5 лет 9 мес. назад | Торрент скачан:32 раза
Скачать  

07-02-2014 08:36 Визит дамы Скачать торрент  

Визит дамы (ТВ) (Михаил Козаков)Год выпуска: 1989
Страна: СССР
Жанр: драма
Продолжительность: 01:07:08 + 01:08:42
Перевод: Не требуется
Субтитры: Нет
Режиссер: Михаил Козаков
В ролях: Екатерина Васильева (Клара Цаханасьян), Валентин Гафт (Альфред Илл), Игорь Кашинцев (бургомистр), Валентин Никулин (священник), Григорий Лямпе (учитель), Виктор Борцов (вахмистр), Валентин Смирнитский (доктор), Светлана Немоляева (Матильда Илл), Владимир Дружников (Боби, дворецкий), Валерий Носик (первый слепец), Александр Пятков (охотник), Дмитрий Дыховичный
Описание:
Фильм по мотивам пьесы Ф. Дюрренматта «Визит старой дамы». История миллионерши, приехавшей через много лет к себе на родину, в маленький провинциальный городок, дает повод для острого сатирического обличения многочисленных пороков современного общества.
Рейтинг
kinopoisk.ru: 7.907 (572)
imdb.com: 7.50 (67)
mpaa: для любой зрительской аудитории
Качество: DVDRip
Формат: AVI
Видео кодек: XviD
Аудио кодек: AC3
Видео: XviD, 704x528 (4:3), 25 fps, 2100 kbps, 0,226 bpp
Аудио: AC3 / 2.0 / 192 kbps / 16 bit / 48 kHz
скриншот   скриншот   скриншот   скриншот   скриншот   скриншот   скриншот   скриншот   скриншот   скриншот  

Общее
Полное имя : F:igorutkaVizit_dami_DVDRip�1_Vizit_dami_DVDRip.avi
Формат : AVI
Формат/Информация : Audio Video Interleave
Размер файла : 1,08 Гбайт
Продолжительность : 1 ч. 7 м.
Общий поток : 2303 Кбит/сек
Программа кодирования : VirtualDubModRus 1.5.10.2 (build 2542/release)
Библиотека кодирования : VirtualDubMod build 2542/release

Видео
Идентификатор : 0
Формат : MPEG-4 Visual
Профиль формата : Advanced Simple@L5
Параметр BVOP формата : 2
Параметр QPel формата : Нет
Параметр GMC формата : Без точки перехода
Параметр матрицы формата : Default (MPEG)
Режим смешивания : Сжатый битовый поток
Идентификатор кодека : XVID
Идентификатор кодека/Подсказка : XviD
Продолжительность : 1 ч. 7 м.
Битрейт : 2101 Кбит/сек
Ширина : 704 пикселя
Высота : 528 пикселей
Соотношение сторон : 4:3
Частота кадров : 25,000 кадров/сек
Цветовое пространство : YUV
Субдискретизация насыщенности : 4:2:0
Битовая глубина : 8 бит
Тип развёртки : Прогрессивная
Метод сжатия : С потерями
Бит/(Пиксели*Кадры) : 0.226
Размер потока : 1009 Мбайт (91%)
Библиотека кодирования : XviD 1.2.1 (UTC 2008-12-04)

Аудио
Идентификатор : 1
Формат : AC-3
Формат/Информация : Audio Coding 3
Расширение режима : CM (complete main)
Параметр Endianness формата : Big
Идентификатор кодека : 2000
Продолжительность : 1 ч. 7 м.
Вид битрейта : Постоянный
Битрейт : 192 Кбит/сек
Каналы : 2 канала
Расположение каналов : Front: L R
Частота : 48,0 КГц
Битовая глубина : 16 бит
Метод сжатия : С потерями
Размер потока : 92,2 Мбайт (8%)
Выравнивание : Соединение по промежуткам
Продолжительность промежутка : 40 мс. (1,00 видеокадр)
Время предзагрузки промежутка : 512 мс.
pb.wtf



Скачать Визит дамы через торрент http://pic.kartinco.top/images/6/mbydq.jpg Скачать фильм Визит дамы через торрент бесплантно в хорошем качестве Описание: Фильм по мотивам пьесы Ф. Дюрренматта «Визит старой дамы». История миллионерши, приехавшей через много лет к себе на родину, в ... 10 10 5
Info! Золотая раздача, скачанное не засчитывается.
Торрент: Зарегистрирован [2014-02-07 08:37] · скачан: 32 раз
Статус: √ проверено
Размер: 2.18 GB
Как cкачать? Как скачать Визит дамы через торрент | qTorrent

    Дорогой пользователь! Огромная просьба, поблагодарите релизера, оцените раздачу и оставьте свои комментарий, если Вы скачали Визит дамы через торрент бесплатно! Внесите свою лепту в развитие PiratBit!
    Комментировать посты могут только пользователи прошедшие не сложную регистрацию
    Показать сообщения:    

    Визит дамы через торрент
    Скачать бесплатно Визит дамы
    Визит дамы скачать торрент
    Визит дамы смотреть онлайн
    Cкачать фильм Визит дамы бесплатно
    Визит дамы скачать торрент в хорошем качестве
    Визит дамы смотреть онлайн бесплатно в хорошем качестве


    Вы не можете начинать темы
    Вы не можете отвечать на сообщения
    Вы не можете редактировать свои сообщения
    Вы не можете удалять свои сообщения
    Вы не можете голосовать в опросах
    Вы не можете прикреплять файлы к сообщениям
    Вы можете скачивать файлы