2 сезон

iTunes

MVO

1

2 сезон

iTunes

iTunes

1 сезон

RePack

30

Новинка

ВАЖНО

ИГРА 18+

pack

RePack

MK11
pack

Легкие деньги

RePack

jed

RePack

fifa19

RePack

RDR2

RePack

NEED FOR SPEED™ PAYBACK

4 сезон

9 сезон

Бесстыжие 9 сезон

Все сериалы

все сериалы на PB.wtf

RePack

FAR CRY 5

Anonymous, доброй ночи, мы не успеваем собрать деньги на оплату серверов за декабрь и январь, помогите нам пожалуйста в это трудное время. В качестве благодарности мы отключим Вам всю рекламу на сайте (укажите свой ник в строку Ваше имя)!

×
  
Magnet ссылка

Tyrese feat. Ludacris & The Roots / My Best Friend (Paul Walker Tribute Song) [2013 г., Hip-Hop, Rap, WEB-DLRip 720p] pb.wtf

Tyrese feat. Ludacris & The Roots через торрент pb.wtf

Размер: 45 MB | Добавлен: 6 лет 11 мес. назад | Торрент скачан:34 раза
Скачать  

07-02-2014 15:13 Tyrese feat. Ludacris & The Roots Скачать торрент  

Tyrese feat. Ludacris & The Roots / My Best Friend (Paul Walker Tribute Song)
Год выпуска: 2013
Страна: США
Жанр: Hip-Hop, Rap
Продолжительность: 00:03:22

Качество: WEB-DLRip 720p
Формат: MP4
Видео кодек: H.264
Аудио кодек: AAC
Видео: 1280:720, 25.000 fps, 1 879 Kbps
Аудио#1: 2 channels, 128 Kbps, 44.1 KHz
скриншот   скриншот   скриншот   скриншот   скриншот   скриншот   скриншот  

Код:

C:UsersLenovoDownloadsTyrese feat. Ludacris & The Roots _ My Best Friend (Paul Walker Tribute Song) [HD 720].720.mp4
   General
      Complete name : C:UsersLenovoDownloadsTyrese feat. Ludacris & The Roots _ My Best Friend (Paul Walker Tribute Song) [HD 720].720.mp4
      Format : MPEG-4
      Format profile : Base Media
      Codec ID : isom
      File size : 45.4 MiB
      Duration : 3mn 22s
      Overall bit rate : 1 879 Kbps
      Writing application : Lavf54.59.106
   Video #1
      ID : 1
      Format : AVC
      Format/Info : Advanced Video Codec
      Format profile : High@L3.1
      Format settings, CABAC : Yes
      Format settings, ReFrames : 4 frames
      Codec ID : avc1
      Codec ID/Info : Advanced Video Coding
      Duration : 3mn 22s
      Bit rate : 1 800 Kbps
      Width : 1 280 pixels
      Height : 720 pixels
      Display aspect ratio : 16:9
      Frame rate mode : Constant
      Frame rate : 25.000 fps
      Color space : YUV
      Chroma subsampling : 4:2:0
      Bit depth : 8 bits
      Scan type : Progressive
      Bits/(Pixel*Frame) : 0.078
      Stream size : 42.1 MiB (93%)
      Writing library : x264 core 129
      Encoding settings : cabac=1 / ref=3 / deblock=1:0:0 / analyse=0x3:0x113 / me=hex / subme=7 / psy=1 / psy_rd=1.00:0.00 / mixed_ref=1 / me_range=16 / chroma_me=1 / trellis=1 / 8x8dct=1 / cqm=0 / deadzone=21,11 / fast_pskip=1 / chroma_qp_offset=-2 / threads=24 / lookahead_threads=4 / sliced_threads=0 / nr=0 / decimate=1 / interlaced=0 / bluray_compat=0 / constrained_intra=0 / bframes=3 / b_pyramid=2 / b_adapt=1 / b_bias=0 / direct=1 / weightb=1 / open_gop=0 / weightp=2 / keyint=250 / keyint_min=25 / scenecut=40 / intra_refresh=0 / rc_lookahead=40 / rc=abr / mbtree=1 / bitrate=1800 / ratetol=1.0 / qcomp=0.60 / qpmin=0 / qpmax=69 / qpstep=4 / ip_ratio=1.40 / aq=1:1.00
   Audio #2
      ID : 2
      Format : AAC
      Format/Info : Advanced Audio Codec
      Format profile : LC
      Codec ID : 40
      Duration : 3mn 22s
      Bit rate mode : Constant
      Bit rate : 128 Kbps
      Channel(s) : 2 channels
      Channel positions : Front: L R
      Sampling rate : 44.1 KHz
      Compression mode : Lossy
      Delay relative to video : 80ms
      Stream size : 3.08 MiB (7%)


pb.wtf



Скачать Tyrese feat. Ludacris & The Roots через торрент http://pic.kartinco.top/images/6/4pdyy.jpg Скачать фильм Tyrese feat. Ludacris & The Roots через торрент бесплантно в хорошем качестве Год выпуска: 2013 Страна: СШАЖанр: Hip-Hop, RapПродолжительность: ... 9.5 10 8
Info! Золотая раздача, скачанное не засчитывается.
Торрент: Зарегистрирован [2014-02-07 15:13] · скачан: 34 раз
Статус: √ проверено
Размер: 45 MB
Как cкачать? Как скачать Tyrese feat. Ludacris & The Roots через торрент | UTorrent



Последний раз редактировалось: 1mpulse2k20 (2014-02-07 15:21), всего редактировалось 2 раз(а)

28-11-2019 20:33  

Отключить всю рекламу на сайте

07-02-2014 15:14 Tyrese feat. Ludacris & The Roots Скачать торрент  

pb.wtf



    Дорогой пользователь! Огромная просьба, поблагодарите релизера, оцените раздачу и оставьте свои комментарий, если Вы скачали Tyrese feat. Ludacris & The Roots через торрент бесплатно! Внесите свою лепту в развитие PiratBit!
    Комментировать посты могут только пользователи прошедшие не сложную регистрацию
    Показать сообщения:    

    Tyrese feat. Ludacris & The Roots через торрент
    Скачать бесплатно Tyrese feat. Ludacris & The Roots
    Tyrese feat. Ludacris & The Roots скачать торрент
    Tyrese feat. Ludacris & The Roots смотреть онлайн
    Cкачать фильм Tyrese feat. Ludacris & The Roots бесплатно
    Tyrese feat. Ludacris & The Roots скачать торрент в хорошем качестве
    Tyrese feat. Ludacris & The Roots смотреть онлайн бесплатно в хорошем качестве


    Вы не можете начинать темы
    Вы не можете отвечать на сообщения
    Вы не можете редактировать свои сообщения
    Вы не можете удалять свои сообщения
    Вы не можете голосовать в опросах
    Вы не можете прикреплять файлы к сообщениям
    Вы можете скачивать файлы