Ссылка на приватное зеркало нашего сайта всего за 1$. Внимание количество ограничено!!!

2 сезон

iTunes

1 сезон

1

iTunes

iTunes

iTunes

1 сезон

RePack

30

ИГРА 18+

pack

ВАЖНО

!!Акция!!

Alien_RageХит недели

RePack

MK11
pack

Забери бонус

RePack

jed

!!Акция!!

Alien_Rage

RePack

fifa19

RePack

Assassins Creed: Odyssey

RePack

NEED FOR SPEED™ PAYBACK

4 сезон

9 сезон

Бесстыжие 9 сезон

Все сериалы

все сериалы на PB.wtf

RePack

FAR CRY 5
  

Гравитация / Gravity (Альфонсо Куарон) [2013, фантастика, триллер, драма, BDRip1080p [CHD], Дублированный][iTunes] pb.wtf

Гравитация через торрент pb.wtf

Размер: 8.16 GB | Добавлен: 6 лет 8 мес. назад | Торрент скачан:585 раз
Скачать  

07-02-2014 16:01 Гравитация Скачать торрент  


Гравитация / GravityГод выпуска: 2013
Страна: США, Великобритания
Жанр: фантастика, триллер, драма

Продолжительность: 01:30:58
Перевод: Профессиональный (полное дублирование)
Субтитры: Русский (forced, full), украинский, английский (SDH)
Режиссер: Альфонсо Куарон / Alfonso Cuarón
В ролях: Сандра Буллок (Ryan Stone), Джордж Клуни (Matt Kowalski), Эд Харрис (Mission Control, озвучка), Орто Игнатиуссен (Aningaaq, озвучка), Фалдут Шарма (Shariff, озвучка), Эми Уоррен (Explorer Captain, озвучка), Башер Саваж (Russian Space Station Captain, озвучка), Дженис Ахерн (Ryan voice over and Mocap Voice work and Mocap, в титрах не указана)
Описание:
Доктор Райан Стоун, блестящий специалист в области медицинского инжиниринга, отправляется в свою первую космическую миссию под командованием ветерана астронавтики Мэтта Ковальски, для которого этот полет - последний перед отставкой. Но во время, казалось бы, рутинной работы за бортом случается катастрофа.
Шаттл уничтожен, а Стоун и Ковальски остаются совершенно одни; они находятся в связке друг с другом, и все, что они могут, - это двигаться по орбите в абсолютно черном пространстве без всякой связи с Землей и какой-либо надежды на спасение.
Рейтинг
kinopoisk.ru: 8.006 (70 243)
imdb.com: 8.30 (263 782)
MPAA: PG-13 - Детям до 13 лет просмотр не желателен
Качество: BDRip 1080p [CHD]
Формат: MKV
Видео кодек: AVC
Аудио кодек: AC3/DTS
Видео: AVC, 1920x800 (2.40:1), 10959 kbps, 23,976 fps, 0,298 bpp
Аудио №1: русский / AC3 / 5.1 / 48 kHz / 384 kbps / 16 bit ||
Аудио №2: английский / DTS / 5.1 / 48 kHz / 1510 kbps / 24 bit

General
Unique ID : 201223823569073928827260915374212081680 (0x97624C79CDC0F0A3B0BF9D4799656810)
Complete name : D:ТорентыГравитация-Gravity.(2013).BDRip.[1080p].mkv
Format : Matroska
Format version : Version 2
File size : 8.16 GiB
Duration : 1h 30mn
Overall bit rate : 12.8 Mbps
Movie name : Gravity (2013)
Encoded date : UTC 2014-02-07 11:26:05
Writing application : mkvmerge v5.7.0 ('The Whirlwind') built on Aug 7 2012 14:11:40
Writing library : libebml v1.2.3 + libmatroska v1.3.0

Video
ID : 1
Format : AVC
Format/Info : Advanced Video Codec
Format profile : High@L4.1
Format settings, CABAC : Yes
Format settings, ReFrames : 5 frames
Codec ID : V_MPEG4/ISO/AVC
Duration : 1h 30mn
Bit rate : 11.0 Mbps
Width : 1 920 pixels
Height : 800 pixels
Display aspect ratio : 2.40:1
Frame rate : 23.976 fps
Color space : YUV
Chroma subsampling : 4:2:0
Bit depth : 8 bits
Scan type : Progressive
Bits/(Pixel*Frame) : 0.298
Stream size : 6.80 GiB (83%)
Title : Гравитация-Gravity.(2013).BDRip.[1080p]
Writing library : x264 core 138 r2356 a1d3d17
Encoding settings : cabac=1 / ref=5 / deblock=1:-3:-3 / analyse=0x3:0x113 / me=umh / subme=10 / psy=1 / psy_rd=1.00:0.05 / mixed_ref=1 / me_range=32 / chroma_me=1 / trellis=2 / 8x8dct=1 / cqm=0 / deadzone=21,11 / fast_pskip=0 / chroma_qp_offset=-2 / threads=18 / lookahead_threads=1 / sliced_threads=0 / nr=0 / decimate=1 / interlaced=0 / bluray_compat=0 / constrained_intra=0 / bframes=6 / b_pyramid=2 / b_adapt=2 / b_bias=0 / direct=3 / weightb=1 / open_gop=0 / weightp=2 / keyint=250 / keyint_min=23 / scenecut=40 / intra_refresh=0 / rc=2pass / mbtree=0 / bitrate=10959 / ratetol=1.0 / qcomp=0.70 / qpmin=0 / qpmax=69 / qpstep=4 / cplxblur=20.0 / qblur=0.5 / ip_ratio=1.40 / pb_ratio=1.30 / aq=2:0.90
Language : English
Default : Yes
Forced : No

Audio #1
ID : 2
Format : AC-3
Format/Info : Audio Coding 3
Mode extension : CM (complete main)
Codec ID : A_AC3
Duration : 1h 30mn
Bit rate mode : Constant
Bit rate : 384 Kbps
Channel(s) : 6 channels
Channel positions : Front: L C R, Side: L R, LFE
Sampling rate : 48.0 KHz
Bit depth : 16 bits
Compression mode : Lossy
Stream size : 250 MiB (3%)
Title : AC3 5.1 / 384 kbps / Dub
Language : Russian
Default : Yes
Forced : No

Audio #2
ID : 3
Format : DTS
Format/Info : Digital Theater Systems
Codec ID : A_DTS
Duration : 1h 30mn
Bit rate mode : Constant
Bit rate : 1 510 Kbps
Channel(s) : 6 channels
Channel positions : Front: L C R, Side: L R, LFE
Sampling rate : 48.0 KHz
Bit depth : 24 bits
Compression mode : Lossy
Stream size : 982 MiB (12%)
Title : DTS 5.1 / 1536 kbps / Oriiginal
Language : English
Default : No
Forced : No

Text #1
ID : 4
Format : UTF-8
Codec ID : S_TEXT/UTF8
Codec ID/Info : UTF-8 Plain Text
Title : Forced
Language : Russian
Default : Yes
Forced : No

Text #2
ID : 5
Format : UTF-8
Codec ID : S_TEXT/UTF8
Codec ID/Info : UTF-8 Plain Text
Title : Full
Language : Russian
Default : No
Forced : No

Text #3
ID : 6
Format : UTF-8
Codec ID : S_TEXT/UTF8
Codec ID/Info : UTF-8 Plain Text
Title : Full
Language : Ukrainian
Default : No
Forced : No

Text #4
ID : 7
Format : UTF-8
Codec ID : S_TEXT/UTF8
Codec ID/Info : UTF-8 Plain Text
Title : SDH
Language : English
Default : No
Forced : No

Menu
00:00:00.000 : en:00:00:00.000
00:13:08.830 : en:00:13:08.830
00:21:33.542 : en:00:21:33.542
00:29:12.668 : en:00:29:12.668
00:39:59.856 : en:00:39:59.856
00:48:49.051 : en:00:48:49.051
00:57:00.667 : en:00:57:00.667
01:08:08.418 : en:01:08:08.418
01:15:27.148 : en:01:15:27.148
01:23:50.567 : en:01:23:50.567
pb.wtf



Скачать Гравитация через торрент http://3.firepic.org/3/images/2014-01/06/r8jw7kumeh5y.png Скачать фильм Гравитация через торрент бесплантно в хорошем качестве Описание: Доктор Райан Стоун, блестящий специалист в области медицинского инжиниринга, отправляется в свою первую космическую миссию под ... 10 10 12
Info! Золотая раздача, скачанное не засчитывается.
Торрент: Зарегистрирован [2014-02-07 16:01] · скачан: 585 раз
Статус: √ проверено
Размер: 8.16 GB
Как cкачать? Как скачать Гравитация через торрент | qTorrent

% Раздел Тема Автор DL S | L
3D Мультфильмы [ 3.69 GB ] Секреты гравитации: По стопам Альберта Эйнштейна в 3Д / The Secrets of Gravity: In the Footsteps of Albert Einstein 3D [2016 мультфильм познавательный BDRip 1080p] OverUnder / Вертикальная стереопа serega768 Скачать
2 | 0
3D Фильмы [ 18.61 GB ] Гравитация в 3Д / Gravity 3D [2013 BDrip 1080p] OverUnder / Вертикальная стереопара serega768 Скачать
1 | 0
Документальные фильмы и телепередачи [ 699 MB ] Проект Гринглоу. В поисках власти над гравитацией / Project Greenglow. The Quest for Gravity Control [2016 Документальный SATRip] Armstrong Скачать
1 | 0
Фильмы [HD 720p, 1080p] (Хороший звук DUB, MVO) [ 3.7 GB ] Гравитация / Gravity [2013 BDRip 1080p HEVC ] Мичман37 Скачать
1 | 0
BBC [ 2.95 GB ] Я и гравитация. Сила формирующая нашу жизнь / Gravity and Me. The Force That Shapes Our Lives [2017 Документальный научно-познавательный HDTVRip 720p ] Armstrong Скачать
1 | 0
Фильмы (HD 720p, 1080p) (48-60 fps) [ 14.07 GB ] Гравитация / Gravity [2013 BDRip 1080p 60fps Dub AVO VO Original] от R.G. HD-Films Tiberiumsun69 Скачать
8 | 1
Фильмы (HD 720p, 1080p) (48-60 fps) [ 6.4 GB ] Гравитация / Gravity [2013 BDRip 720p 60fps Dub AVO VO Original] от R.G. HD-Films Tiberiumsun69 Скачать
2 | 0

28-11-2019 20:33  

Отключить всю рекламу на сайте

15-02-2014 11:26 Гравитация Скачать торрент  

Не пашет оригинальная озвучка почему то (
КМплеерpb.wtf



25-02-2014 07:17 Гравитация Скачать торрент  

Файл битый для телевизора с разрешением 1920 на 1080 файл не поддерживаться спс за раздачу !pb.wtf



    Дорогой пользователь! Огромная просьба, поблагодарите релизера, оцените раздачу и оставьте свои комментарий, если Вы скачали Гравитация через торрент бесплатно! Внесите свою лепту в развитие PiratBit!
    Комментировать посты могут только пользователи прошедшие не сложную регистрацию
    Показать сообщения:    

    Гравитация через торрент
    Скачать бесплатно Гравитация
    Гравитация скачать торрент
    Гравитация смотреть онлайн
    Cкачать фильм Гравитация бесплатно
    Гравитация скачать торрент в хорошем качестве
    Гравитация смотреть онлайн бесплатно в хорошем качестве


    Вы не можете начинать темы
    Вы не можете отвечать на сообщения
    Вы не можете редактировать свои сообщения
    Вы не можете удалять свои сообщения
    Вы не можете голосовать в опросах
    Вы не можете прикреплять файлы к сообщениям
    Вы можете скачивать файлы