новый адрес
Ссылка на приватное зеркало всего за 1$. Внимание количество ограничено!!!

iTunes

1+1

iTunes

мы

iTunes

1

iTunes

Чернобыль

iTunes

Ральф против интернета

Лицензия

ПШазам

Лицензия

Оно 2

Лицензия

30
pack

Вам бонус

ВАЖНО

!!Акция!!

Alien_RageХит недели

RePack

Resident Evil 21

ИГРА 18+

pack

RePack

jed

!!Акция!!

Alien_Rage

RePack

fifa19

RePack

Assassins Creed: Odyssey

RePack

NEED FOR SPEED™ PAYBACK

3 сезон

9 сезон

Бесстыжие 9 сезон

Все сериалы

все сериалы на PB.wtf

RePack

FAR CRY 5
Ребята, катастрофически не хватает 1900р. для оплаты серверов за Октябрь (всвязи с блокировками трафик упал в 3 раза), 1-2р., выручайте.
  

Я объявляю вам войну (Ярополк Лапшин) [1990 г., Драма, криминал, DVDRip] pb.wtf

Я объявляю вам войну через торрент pb.wtf

Размер: 1.37 GB | Добавлен: 5 лет 9 мес. назад | Торрент скачан:25 раз
Скачать  

07-02-2014 19:41 Я объявляю вам войну Скачать торрент  

Я объявляю вам войну
Год выпуска: 1990
Страна: СССР Свердловская киностудия
Жанр: Драма, криминал
Продолжительность: 01:23:29

Режиссер: Ярополк Лапшин
Сценарий: Валентин Черных



В ролях: Николай Еременко мл., Анжелика Неволина, Елена Тонунц, Геннадий Сайфулин, Наталья Потапова, Олег Корчиков, Николай Сектименко, Дмитрий Наливайчук, Алексей Шемес, Любовь Теплова

Описание: Отслужив в Афганистане, офицер Ерохин возвращается в родной город и надеется на спокойную жизнь. Однако профессиональный опыт подсказывает ему, что и здесь все погрязло в коррупции. Получив поддержку друзей, Ерохин вступает в борьбу с преступниками…

Качество: DVDRip
Формат: AVI
Видео кодек: XviD
Аудио кодек: AC3
Видео: Xvid 704x512, 25.00fps, 1 886 Kbps
Аудио: Dolby AC3, 48000Hz, 6ch, 448kbps
Релиз от: Axwel





General
Complete name : D:�7 02 1013Ja.objavljaju.vam.vojnu.1990.XviD.DVDRip.avi
Format : AVI
Format/Info : Audio Video Interleave
File size : 1.37 GiB
Duration : 1h 23mn
Overall bit rate : 2 344 Kbps
Writing application : VirtualDubMod 1.5.10.2 (build 2540/release)
Writing library : VirtualDubMod build 2540/release

Video
ID : 0
Format : MPEG-4 Visual
Format profile : Advanced Simple@L5
Format settings, BVOP : 1
Format settings, QPel : No
Format settings, GMC : No warppoints
Format settings, Matrix : Default (MPEG)
Codec ID : XVID
Codec ID/Hint : XviD
Duration : 1h 23mn
Bit rate : 1 886 Kbps
Width : 704 pixels
Height : 512 pixels
Display aspect ratio : 1.375
Frame rate : 25.000 fps
Color space : YUV
Chroma subsampling : 4:2:0
Bit depth : 8 bits
Scan type : Progressive
Compression mode : Lossy
Bits/(Pixel*Frame) : 0.209
Stream size : 1.10 GiB (80%)
Writing library : XviD 1.2.0.dev47 (UTC 2006-11-01)

Audio
ID : 1
Format : AC-3
Format/Info : Audio Coding 3
Mode extension : CM (complete main)
Codec ID : 2000
Duration : 1h 23mn
Bit rate mode : Constant
Bit rate : 448 Kbps
Channel(s) : 6 channels
Channel positions : Front: L C R, Side: L R, LFE
Sampling rate : 48.0 KHz
Bit depth : 16 bits
Compression mode : Lossy
Stream size : 267 MiB (19%)
Alignment : Split accross interleaves
Interleave, duration : 40 ms (1.00 video frame)
Interleave, preload duration : 500 ms

pb.wtf



Скачать Я объявляю вам войну через торрент http://pic.kartinco.top/images/6/xtr6k.jpg Скачать фильм Я объявляю вам войну через торрент бесплантно в хорошем качестве Описание: Отслужив в Афганистане, офицер Ерохин возвращается в родной город и надеется на спокойную жизнь. Однако опыт ... 10 10 6
Info! Золотая раздача, скачанное не засчитывается.
Торрент: Зарегистрирован [2014-02-07 19:41] · скачан: 25 раз
Статус: √ проверено
Размер: 1.37 GB
Как cкачать? Как скачать Я объявляю вам войну через торрент | qTorrent

07-02-2014 20:21 Я объявляю вам войну Скачать торрент  

неплохое киноpb.wtf



13-04-2014 16:41 Я объявляю вам войну Скачать торрент  

А на раздаче никого((pb.wtf



    Дорогой пользователь! Огромная просьба, поблагодарите релизера, оцените раздачу и оставьте свои комментарий, если Вы скачали Я объявляю вам войну через торрент бесплатно! Внесите свою лепту в развитие PiratBit!
    Комментировать посты могут только пользователи прошедшие не сложную регистрацию
    Показать сообщения:    

    Я объявляю вам войну через торрент
    Скачать бесплатно Я объявляю вам войну
    Я объявляю вам войну скачать торрент
    Я объявляю вам войну смотреть онлайн
    Cкачать фильм Я объявляю вам войну бесплатно
    Я объявляю вам войну скачать торрент в хорошем качестве
    Я объявляю вам войну смотреть онлайн бесплатно в хорошем качестве


    Вы не можете начинать темы
    Вы не можете отвечать на сообщения
    Вы не можете редактировать свои сообщения
    Вы не можете удалять свои сообщения
    Вы не можете голосовать в опросах
    Вы не можете прикреплять файлы к сообщениям
    Вы можете скачивать файлы