Ссылка на приватное зеркало нашего сайта всего за 1$. Внимание количество ограничено!!!

2 сезон

iTunes

1 сезон

1

iTunes

iTunes

iTunes

1 сезон

RePack

30

ИГРА 18+

pack

ВАЖНО

!!Акция!!

Alien_RageХит недели

RePack

MK11
pack

Забери бонус

RePack

jed

!!Акция!!

Alien_Rage

RePack

fifa19

RePack

Assassins Creed: Odyssey

RePack

NEED FOR SPEED™ PAYBACK

4 сезон

9 сезон

Бесстыжие 9 сезон

Все сериалы

все сериалы на PB.wtf

RePack

FAR CRY 5
  

Полицейский из Беверли-Хиллз / Beverly Hills Cop (Мартин Брест) [1984, США, боевик, триллер, драма, комедия, криминал, BDRip 720p] 3xMVO + 4xAVO + DVO + MVO Ukr + Original Eng + Sub (Rus, Eng) от R.G. PiratFilms pb.wtf

Полицейский из Беверли-Хиллз через торрент pb.wtf

Размер: 14.2 GB | Добавлен: 6 лет 8 мес. назад | Торрент скачан:10 раз
Скачать  

08-02-2014 09:10 Полицейский из Беверли-Хиллз Скачать торрент  

Полицейский из Беверли-Хиллз / Beverly Hills Cop
«In Detroit a cop learns to take the heat. In L.A. he learns to keep his cool»
Год выпуска: 1984
Страна: США
Жанр: боевик, триллер, драма, комедия, криминал

Продолжительность: 01:45:04
Перевод:
|Профессиональный (многоголосый, закадровый) Киномания
Авторский (одноголосый закадровый) А. Михалев
Авторский (одноголосый закадровый) Д. Пучков (Goblin)
Авторский (одноголосый закадровый) Л. Володарский
Профессиональный (двухголосый, закадровый),
Профессиональный (многоголосый, закадровый)
Профессиональный (многоголосый, закадровый) СТС
Авторский (одноголосый закадровый) В. Горчаков|

Субтитры:
русские (Kinomania мат), русские (Goblin мат), русские (RUS), английские (ENG), английские (ENG, sdh)
Режиссер: Мартин Брест / Martin Brest
В ролях: Эдди Мёрфи (Det. Axel Foley), Джадж Райнхолд (Det. William «Billy» Rosewood), Джон Эштон (Det. Sgt. John Taggart), Лиза Айлбакер (Jeannette «Jenny» Summers), Ронни Кокс (Lt. Andrew Bogomil), Стивен Беркофф (Victor Maitland), Джеймс Руссо (Mikey Tandino), Джонатан Бэнкс (Zack, Maitland's Thug), Стивен Эллиот (Police Chief Hubbard), Гилберт Р. Хилл (Insp. Douglas Todd), Арт Кимбро (Det. Foster), Джоэл Бэйли (Det. McCabe)
Описание:
Чернокожий детройтский полицейский встречается со школьным другом, которого долго не видел, и вдруг того убивают. В поисках убийц полицейский едет в Лос-Анджелес.
Здесь он натыкается на глухое и упорное неприятие залетного выскочки местными полицейскими, но с помощью своего удивительного дара находить выход из любого положения, Фоули заручается симпатией и, соответственно, реальной поддержкой двух из них. Множество драк, перестрелок, погонь, хорошей музыки и отменного юмора.
Рейтинг


MPAA: R - Лицам до 17 лет обязательно присутствие взрослого

Качество: BDRip 720p | Исходник: BEVERLY_HILLS_COP_BD_BLUEBIRD
Формат: MKV
Видео кодек: AVC
Аудио кодек: AC3, DTS
Видео: AVC, 1280x720 (16:9), 8198 kbps, 23,976 fps, 0,371 bpp
Аудио №1: русский / DTS / 5.1 / 48 kHz / 1510 kbps / 24 bit |MVO Киномания|
Аудио №2: русский / DTS / 5.1 / 48 kHz / 1510 kbps / 24 bit |AVO А. Михалев|
Аудио №3: русский / DTS / 5.1 / 48 kHz / 1510 kbps / 24 bit |AVO Д. Пучков (Goblin) мат|
Аудио №4: русский / DTS / 5.1 / 48 kHz / 1510 kbps / 24 bit |AVO Л. Володарский|
Аудио №5: русский / DTS / 5.1 / 48 kHz / 1510 kbps / 24 bit |Двухголосый закадровый|
Аудио №6: русский / DTS / 5.1 / 48 kHz / 1510 kbps / 24 bit |Многоголосый закадровый|
Аудио №7: русский / AC3 / 2.0 / 48 kHz / 192 kbps / 16 bit |MVO CTC|
Аудио №8: русский / AC3 / 2.0 / 48 kHz / 192 kbps / 16 bit |AVO В. Горчаков|
Аудио №9: украинский / AC3 / 2.0 / 48 kHz / 192 kbps / 16 bit |Многоголосый закадровый|
Аудио №10: английский / DTS / 5.1 / 48 kHz / 1510 kbps / 24 bit
Сэмпл (аудио+видео) | Сэмпл (только видео)
Оформление: Messa-fan
Рип: by Messa-fan
Постер: Raven

Код:

x264 [info]: frame I:1083  Avg QP:17.50  size:139281
x264 [info]: frame P:30427 Avg QP:19.74  size: 57958
x264 [info]: frame B:119643 Avg QP:20.80  size: 37980

Код:

General
Unique ID                                : 219979652008136926670291611469846678153 (0xA57E8A369D0C914488FBC9AF5F1C0A89)
Complete name                            : Beverly.Hills.Cop.BDRip.720p.8xRus.Ukr.Eng.Subs.by.Messa-fan.mkv
Format                                   : Matroska
Format version                           : Version 4 / Version 2
File size                                : 14.2 GiB
Duration                                 : 1h 45mn
Overall bit rate                         : 19.3 Mbps
Movie name                               : Beverly Hills Cop (1984) rip by Messa-fan
Encoded date                             : UTC 2014-02-08 07:43:23
Writing application                      : mkvmerge v6.7.0 ('Back to the Ground') 64bit built on Jan  8 2014 15:10:52
Writing library                          : libebml v1.3.0 + libmatroska v1.4.1

Video
ID                                       : 1
Format                                   : AVC
Format/Info                              : Advanced Video Codec
Format profile                           : High@L4.1
Format settings, CABAC                   : Yes
Format settings, ReFrames                : 9 frames
Codec ID                                 : V_MPEG4/ISO/AVC
Duration                                 : 1h 45mn
Bit rate                                 : 8 198 Kbps
Width                                    : 1 280 pixels
Height                                   : 720 pixels
Display aspect ratio                     : 16:9
Frame rate                               : 23.976 fps
Color space                              : YUV
Chroma subsampling                       : 4:2:0
Bit depth                                : 8 bits
Scan type                                : Progressive
Bits/(Pixel*Frame)                       : 0.371
Stream size                              : 5.73 GiB (40%)
Title                                    : Beverly Hills Cop (1984) rip by Messa-fan
Writing library                          : x264 core 130 r2273 b3065e6
Encoding settings                        : cabac=1 / ref=9 / deblock=1:-3:-3 / analyse=0x3:0x113 / me=umh / subme=10 / psy=1 / psy_rd=0.95:0.05 / mixed_ref=1 / me_range=48 / chroma_me=1 / trellis=2 / 8x8dct=1 / cqm=0 / deadzone=21,11 / fast_pskip=0 / chroma_qp_offset=-5 / threads=6 / lookahead_threads=1 / sliced_threads=0 / nr=0 / decimate=1 / interlaced=0 / bluray_compat=0 / constrained_intra=0 / bframes=10 / b_pyramid=2 / b_adapt=2 / b_bias=0 / direct=3 / weightb=1 / open_gop=0 / weightp=1 / keyint=240 / keyint_min=23 / scenecut=40 / intra_refresh=0 / rc_lookahead=60 / rc=2pass / mbtree=1 / bitrate=8198 / ratetol=1.0 / qcomp=0.80 / qpmin=0 / qpmax=69 / qpstep=4 / cplxblur=20.0 / qblur=0.5 / vbv_maxrate=50000 / vbv_bufsize=62500 / nal_hrd=none / ip_ratio=1.40 / aq=1:0.80
Language                                 : English
Default                                  : Yes
Forced                                   : No

Audio #1
ID                                       : 2
Format                                   : DTS
Format/Info                              : Digital Theater Systems
Codec ID                                 : A_DTS
Duration                                 : 1h 45mn
Bit rate mode                            : Constant
Bit rate                                 : 1 510 Kbps
Channel(s)                               : 6 channels
Channel positions                        : Front: L C R, Side: L R, LFE
Sampling rate                            : 48.0 KHz
Bit depth                                : 24 bits
Compression mode                         : Lossy
Stream size                              : 1.11 GiB (8%)
Title                                    : MVO Kinomania
Language                                 : Russian
Default                                  : Yes
Forced                                   : No

Audio #2
ID                                       : 3
Format                                   : DTS
Format/Info                              : Digital Theater Systems
Codec ID                                 : A_DTS
Duration                                 : 1h 45mn
Bit rate mode                            : Constant
Bit rate                                 : 1 510 Kbps
Channel(s)                               : 6 channels
Channel positions                        : Front: L C R, Side: L R, LFE
Sampling rate                            : 48.0 KHz
Bit depth                                : 24 bits
Compression mode                         : Lossy
Stream size                              : 1.11 GiB (8%)
Title                                    : AVO А. Михалев
Language                                 : Russian
Default                                  : No
Forced                                   : No

Audio #3
ID                                       : 4
Format                                   : DTS
Format/Info                              : Digital Theater Systems
Codec ID                                 : A_DTS
Duration                                 : 1h 45mn
Bit rate mode                            : Constant
Bit rate                                 : 1 510 Kbps
Channel(s)                               : 6 channels
Channel positions                        : Front: L C R, Side: L R, LFE
Sampling rate                            : 48.0 KHz
Bit depth                                : 24 bits
Compression mode                         : Lossy
Stream size                              : 1.11 GiB (8%)
Title                                    : AVO Goblin
Language                                 : Russian
Default                                  : No
Forced                                   : No

Audio #4
ID                                       : 5
Format                                   : DTS
Format/Info                              : Digital Theater Systems
Codec ID                                 : A_DTS
Duration                                 : 1h 45mn
Bit rate mode                            : Constant
Bit rate                                 : 1 510 Kbps
Channel(s)                               : 6 channels
Channel positions                        : Front: L C R, Side: L R, LFE
Sampling rate                            : 48.0 KHz
Bit depth                                : 24 bits
Compression mode                         : Lossy
Stream size                              : 1.11 GiB (8%)
Title                                    : AVO Л. Володарский
Language                                 : Russian
Default                                  : No
Forced                                   : No

Audio #5
ID                                       : 6
Format                                   : DTS
Format/Info                              : Digital Theater Systems
Codec ID                                 : A_DTS
Duration                                 : 1h 45mn
Bit rate mode                            : Constant
Bit rate                                 : 1 510 Kbps
Channel(s)                               : 6 channels
Channel positions                        : Front: L C R, Side: L R, LFE
Sampling rate                            : 48.0 KHz
Bit depth                                : 24 bits
Compression mode                         : Lossy
Stream size                              : 1.11 GiB (8%)
Title                                    : DVO
Language                                 : Russian
Default                                  : No
Forced                                   : No

Audio #6
ID                                       : 7
Format                                   : DTS
Format/Info                              : Digital Theater Systems
Codec ID                                 : A_DTS
Duration                                 : 1h 45mn
Bit rate mode                            : Constant
Bit rate                                 : 1 510 Kbps
Channel(s)                               : 6 channels
Channel positions                        : Front: L C R, Side: L R, LFE
Sampling rate                            : 48.0 KHz
Bit depth                                : 24 bits
Compression mode                         : Lossy
Stream size                              : 1.11 GiB (8%)
Title                                    : MVO
Language                                 : Russian
Default                                  : No
Forced                                   : No

Audio #7
ID                                       : 8
Format                                   : AC-3
Format/Info                              : Audio Coding 3
Mode extension                           : CM (complete main)
Codec ID                                 : A_AC3
Duration                                 : 1h 45mn
Bit rate mode                            : Constant
Bit rate                                 : 192 Kbps
Channel(s)                               : 2 channels
Channel positions                        : Front: L R
Sampling rate                            : 48.0 KHz
Bit depth                                : 16 bits
Compression mode                         : Lossy
Stream size                              : 144 MiB (1%)
Title                                    : MVO CTC
Language                                 : Russian
Default                                  : No
Forced                                   : No

Audio #8
ID                                       : 9
Format                                   : AC-3
Format/Info                              : Audio Coding 3
Mode extension                           : CM (complete main)
Codec ID                                 : A_AC3
Duration                                 : 1h 45mn
Bit rate mode                            : Constant
Bit rate                                 : 192 Kbps
Channel(s)                               : 2 channels
Channel positions                        : Front: L R
Sampling rate                            : 48.0 KHz
Bit depth                                : 16 bits
Compression mode                         : Lossy
Stream size                              : 144 MiB (1%)
Title                                    : AVO В. Горчаков
Language                                 : Russian
Default                                  : No
Forced                                   : No

Audio #9
ID                                       : 10
Format                                   : AC-3
Format/Info                              : Audio Coding 3
Mode extension                           : CM (complete main)
Codec ID                                 : A_AC3
Duration                                 : 1h 45mn
Bit rate mode                            : Constant
Bit rate                                 : 192 Kbps
Channel(s)                               : 2 channels
Channel positions                        : Front: L R
Sampling rate                            : 48.0 KHz
Bit depth                                : 16 bits
Compression mode                         : Lossy
Stream size                              : 144 MiB (1%)
Title                                    : MVO (Ukrainian)
Language                                 : Ukrainian
Default                                  : No
Forced                                   : No

Audio #10
ID                                       : 11
Format                                   : DTS
Format/Info                              : Digital Theater Systems
Codec ID                                 : A_DTS
Duration                                 : 1h 45mn
Bit rate mode                            : Constant
Bit rate                                 : 1 510 Kbps
Channel(s)                               : 6 channels
Channel positions                        : Front: L C R, Side: L R, LFE
Sampling rate                            : 48.0 KHz
Bit depth                                : 24 bits
Compression mode                         : Lossy
Stream size                              : 1.11 GiB (8%)
Title                                    : Original
Language                                 : English
Default                                  : No
Forced                                   : No

Text #1
ID                                       : 12
Format                                   : UTF-8
Codec ID                                 : S_TEXT/UTF8
Codec ID/Info                            : UTF-8 Plain Text
Title                                    : RUS, Kinomania
Language                                 : Russian
Default                                  : No
Forced                                   : No

Text #2
ID                                       : 13
Format                                   : UTF-8
Codec ID                                 : S_TEXT/UTF8
Codec ID/Info                            : UTF-8 Plain Text
Title                                    : RUS, Goblin
Language                                 : Russian
Default                                  : No
Forced                                   : No

Text #3
ID                                       : 14
Format                                   : UTF-8
Codec ID                                 : S_TEXT/UTF8
Codec ID/Info                            : UTF-8 Plain Text
Title                                    : RUS
Language                                 : Russian
Default                                  : No
Forced                                   : No

Text #4
ID                                       : 15
Format                                   : UTF-8
Codec ID                                 : S_TEXT/UTF8
Codec ID/Info                            : UTF-8 Plain Text
Title                                    : ENG
Language                                 : English
Default                                  : No
Forced                                   : No

Text #5
ID                                       : 16
Format                                   : UTF-8
Codec ID                                 : S_TEXT/UTF8
Codec ID/Info                            : UTF-8 Plain Text
Title                                    : ENG, sdh
Language                                 : English
Default                                  : No
Forced                                   : No

Menu
00:00:00.000                             : en:The Heat Is On
00:10:58.490                             : en:Mikey
00:19:31.670                             : en:Beverly Hills Cops
00:36:03.577                             : en:Bananas
00:45:07.161                             : en:Inspector Foley
00:49:28.840                             : en:Super Cops
00:58:39.599                             : en:Picnic
01:13:16.100                             : en:Surprises
01:23:22.663                             : en:Serious Trouble
01:38:28.193                             : en:The Perfect Place
01:41:04.432                             : en:End Credits

Source vs Encode








скриншот   скриншот   скриншот   скриншот   скриншот   скриншот   скриншот  
Внимание! Перевод и субтитры Пучкова, а также субтитры Киномании содержат нецензурную лексику!pb.wtf



Скачать Полицейский из Беверли-Хиллз через торрент http://i4.imageban.ru/out/2014/02/08/1067f551aff11a68c25b31ffa1beac57.png Скачать фильм Полицейский из Беверли-Хиллз через торрент бесплантно в хорошем качестве Описание: Чернокожий детройтский полицейский встречается со школьным другом, которого долго не видел, и вдруг того убивают. В поисках убийц ... 10 10 9
Info! Золотая раздача, скачанное не засчитывается.
Торрент: Зарегистрирован [2014-02-08 13:24] · скачан: 10 раз
Статус: √ проверено
Размер: 14.2 GB
Как cкачать? Как скачать Полицейский из Беверли-Хиллз через торрент | qTorrent



Последний раз редактировалось: Messa-fan (2014-02-08 13:41), всего редактировалось 6 раз(а)

28-11-2019 20:33  

Отключить всю рекламу на сайте

30-03-2014 16:19 Полицейский из Беверли-Хиллз Скачать торрент  

а можно рипы с озвучкой стс все 3 фильма плизpb.wtf



30-03-2014 19:57 Полицейский из Беверли-Хиллз Скачать торрент  

А Гоблин озвучивал тока 1 часть ?pb.wtf



30-03-2014 20:03 Полицейский из Беверли-Хиллз Скачать торрент  

DARKEVIL555
я не видел его озвучки на другие части

DARKEVIL555 писал(а):

рипы с озвучкой стс все 3 фильма

в отдалённой перспективе да, высока вероятность появленияpb.wtf



    Дорогой пользователь! Огромная просьба, поблагодарите релизера, оцените раздачу и оставьте свои комментарий, если Вы скачали Полицейский из Беверли-Хиллз через торрент бесплатно! Внесите свою лепту в развитие PiratBit!
    Комментировать посты могут только пользователи прошедшие не сложную регистрацию
    Показать сообщения:    

    Полицейский из Беверли-Хиллз через торрент
    Скачать бесплатно Полицейский из Беверли-Хиллз
    Полицейский из Беверли-Хиллз скачать торрент
    Полицейский из Беверли-Хиллз смотреть онлайн
    Cкачать фильм Полицейский из Беверли-Хиллз бесплатно
    Полицейский из Беверли-Хиллз скачать торрент в хорошем качестве
    Полицейский из Беверли-Хиллз смотреть онлайн бесплатно в хорошем качестве


    Вы не можете начинать темы
    Вы не можете отвечать на сообщения
    Вы не можете редактировать свои сообщения
    Вы не можете удалять свои сообщения
    Вы не можете голосовать в опросах
    Вы не можете прикреплять файлы к сообщениям
    Вы можете скачивать файлы