новый адрес
Ссылка на приватное зеркало всего за 1$. Внимание количество ограничено!!!

iTunes

1+1

iTunes

мы

iTunes

1

iTunes

Чернобыль

iTunes

Ральф против интернета

Лицензия

ПШазам

Лицензия

Оно 2

Лицензия

30
pack

Вам бонус

ВАЖНО

!!Акция!!

Alien_RageХит недели

RePack

Resident Evil 21

ИГРА 18+

pack

RePack

jed

!!Акция!!

Alien_Rage

RePack

fifa19

RePack

Assassins Creed: Odyssey

RePack

NEED FOR SPEED™ PAYBACK

3 сезон

9 сезон

Бесстыжие 9 сезон

Все сериалы

все сериалы на PB.wtf

RePack

FAR CRY 5
Ребята, катастрофически не хватает 1900р. для оплаты серверов за Октябрь (всвязи с блокировками трафик упал в 3 раза), 1-2р., выручайте.
  

Похищение Савойи (Вениамин Дорман) [1979 г., Приключения, боевик, DVDRip] pb.wtf

Похищение Савойи через торрент pb.wtf

Размер: 1.46 GB | Добавлен: 5 лет 9 мес. назад | Торрент скачан:18 раз
Скачать  

08-02-2014 16:54 Похищение Савойи Скачать торрент  

Похищение Савойи
Год выпуска: 1979
Страна: СССР, Болгария, Польша Киностудия им. М. Горького, Киностудия БОЯНА, Zespol Filmowy
Жанр: Приключения, боевик
Продолжительность: 01:25:54

Режиссер: Вениамин Дорман
Сценарий: Исай Кузнецов, Анджей Щеперский, Анджей Гожевский

Премьера в мире: 1 июня 1979



В ролях: Влодзимеж Голачиньский, Дарья Михайлова, Леонид Броневой, Антони Юраш, Александр Михайлов, Ольга Остроумова, Михаил Глузский, Альгимантас Масюлис, Лучезар Стоянов, Игорь Васильев, Александр Вокач, Олев Эскола, Леонид Марков, Григорий Лямпе, Михаил Жигалов, Шавкат Газиев, Юрий Перацкий, Леон Немчик, Нартай Бегалин

Описание: По мотивам повести А.Щеперского. О путешествии в Африку польского школьника Янека Боровски и его случайной попутчицы русской девочки Тани Соколовой на самолете, оказавшемся под "присмотром" банды, главарь которой - бывший нацистский преступник, а ныне хозяин плантаций марихуаны. Террористы сажают самолет в дебрях Южной Америки, где избежавшие возмездия нацисты занимаются производством наркотиков.

Качество: DVDRip
Формат: AVI
Видео кодек: DivX
Аудио кодек: AC3
Видео: DivX 5, 704x528, 25.00fps, 1 980 Kbps
Аудио: Dolby AC3, 48000Hz, 6ch, 448kbps
Релиз от: sid64

General
Complete name : D:�7 02 1013Pohischenie_Savoyi_DVDRip.avi
Format : AVI
Format/Info : Audio Video Interleave
File size : 1.46 GiB
Duration : 1h 25mn
Overall bit rate : 2 437 Kbps
Writing application : VirtualDubModRus 1.5.10.2 (build 2542/release)
Writing library : VirtualDubMod build 2542/release

Video
ID : 0
Format : MPEG-4 Visual
Format settings, BVOP : 1
Format settings, QPel : No
Format settings, GMC : No warppoints
Format settings, Matrix : Default (H.263)
Muxing mode : Packed bitstream
Codec ID : DX50
Codec ID/Hint : DivX 5
Duration : 1h 25mn
Bit rate : 1 980 Kbps
Width : 704 pixels
Height : 528 pixels
Display aspect ratio : 4:3
Frame rate : 25.000 fps
Color space : YUV
Chroma subsampling : 4:2:0
Bit depth : 8 bits
Scan type : Progressive
Compression mode : Lossy
Bits/(Pixel*Frame) : 0.213
Stream size : 1.19 GiB (81%)
Writing library : DivX 6.8.3-6.8.4 (UTC 2008-06-07)

Audio
ID : 1
Format : AC-3
Format/Info : Audio Coding 3
Mode extension : CM (complete main)
Codec ID : 2000
Duration : 1h 25mn
Bit rate mode : Constant
Bit rate : 448 Kbps
Channel(s) : 6 channels
Channel positions : Front: L C R, Side: L R, LFE
Sampling rate : 48.0 KHz
Bit depth : 16 bits
Compression mode : Lossy
Stream size : 275 MiB (18%)
Alignment : Aligned on interleaves
Interleave, duration : 40 ms (1.00 video frame)
Interleave, preload duration : 512 ms

pb.wtf



Скачать Похищение Савойи через торрент http://pic.kartinco.top/images/6/xfmbk.jpg Скачать фильм Похищение Савойи через торрент бесплантно в хорошем качестве Описание: По мотивам повести А.Щеперского. О путешествии в Африку польского школьника Янека Боровски и его случайной попутчицы русской ... 8.7 10 7
Info! Золотая раздача, скачанное не засчитывается.
Торрент: Зарегистрирован [2014-02-08 16:54] · скачан: 18 раз
Статус: √ проверено
Размер: 1.46 GB
Как cкачать? Как скачать Похищение Савойи через торрент | qTorrent

    Дорогой пользователь! Огромная просьба, поблагодарите релизера, оцените раздачу и оставьте свои комментарий, если Вы скачали Похищение Савойи через торрент бесплатно! Внесите свою лепту в развитие PiratBit!
    Комментировать посты могут только пользователи прошедшие не сложную регистрацию
    Показать сообщения:    

    Похищение Савойи через торрент
    Скачать бесплатно Похищение Савойи
    Похищение Савойи скачать торрент
    Похищение Савойи смотреть онлайн
    Cкачать фильм Похищение Савойи бесплатно
    Похищение Савойи скачать торрент в хорошем качестве
    Похищение Савойи смотреть онлайн бесплатно в хорошем качестве


    Вы не можете начинать темы
    Вы не можете отвечать на сообщения
    Вы не можете редактировать свои сообщения
    Вы не можете удалять свои сообщения
    Вы не можете голосовать в опросах
    Вы не можете прикреплять файлы к сообщениям
    Вы можете скачивать файлы