новый адрес пиратбит piratbit
MEGA NEWS Получи личный уникальный адрес сайта и защити себя от блокировок. Внимание количество ограничено!!!

iTunes

1+1

iTunes

мы

iTunes

1

iTunes

Чернобыль

iTunes

Ральф против интернета

Лицензия

ПШазам

Лицензия

Игра престолов

Лицензия

30
pack

ВАЖНО

!!Акция!!

Alien_RageХит недели

RePack

Resident Evil 21

ИГРА 18+

pack

RePack

Metro:Exodus

!!Акция!!

Alien_Rage

RePack

fifa19

RePack

Assassins Creed: Odyssey

RePack

NEED FOR SPEED™ PAYBACK

3 сезон

9 сезон

Бесстыжие 9 сезон

Все сериалы

все сериалы на PB.wtf

RePack

FAR CRY 5
Ребята, катастрофически не хватает 1900р. для оплаты серверов за АВГУСТ (всвязи с блокировками трафик упал в 3 раза), 1-2р., выручайте.
  

Вспышка / Flashpoint (Уильям Тэннен) [1984 г., Боевик, триллер, детектив, DVDRip] DUB Fenix pb.wtf

Вспышка через торрент pb.wtf

Качают: 1 [ 0 KB/s ]
Размер: 1.37 GB | Добавлен: 5 лет 8 мес. назад | Торрент скачан:38 раз
Скачать  

08-02-2014 18:21 Вспышка Скачать торрент  

Вспышка
Год выпуска: 1984
Страна: США, Home Box Office (HBO), Silver Screen Partners
Жанр: Боевик, триллер, детектив,
Продолжительность: 01:29:42
Перевод: Дубляж Fenix

Режиссер: Уильям Тэннен
Продюссер: Скип Шорт, Майкл Аппель, Франсетт Мейс
Сценарий: Джордж Ла Фонтейн ст., Деннис Шрайак, Майкл Батлер

Премьера в мире: 31 августа 1984





В ролях: Крис Кристофферсон, Трит Уильямс, Рип Торн, Кевин Конуэй, Кертвуд Смит, Мигель Феррер, Джин Смарт, Гай Бойд, Марк Слэйд, Робертс Блоссом

Описание: Два офицера пограничного патруля случайно находят полузасыпанный песком джип, а в нем скелет, винтовку и 800000 долларов наличными, что вовлекает их в таинственную историю, начало которой датируется 1963 годом. Эта находка повлекла за собой вереницу захватывающих и насыщенных "экшном" приключений, ежеминутно грозящих им смертью. И связано это все, возможно, с убийство президента Кеннеди...

Качество: DVDRip
Формат: AVI
Видео кодек: XviD
Аудио кодек: MP3
Видео: Xvid 720x544, 23.98fps, 1 986 Kbps
Аудио: MPEG Audio Layer 3, 48000Hz, stereo, 192kbps
Релиз от: otdelo4nik





General
Complete name : D:�7 02 1013Vspishka.Flashpoint.1984.XviD.DVDRip.avi
Format : AVI
Format/Info : Audio Video Interleave
File size : 1.37 GiB
Duration : 1h 29mn
Overall bit rate : 2 187 Kbps
Writing application : VirtualDubMod 1.5.10.2 (build 2542/release)
Writing library : VirtualDubMod build 2542/release

Video
ID : 0
Format : MPEG-4 Visual
Format profile : Advanced Simple@L5
Format settings, BVOP : 1
Format settings, QPel : No
Format settings, GMC : No warppoints
Format settings, Matrix : Custom
Codec ID : XVID
Codec ID/Hint : XviD
Duration : 1h 29mn
Bit rate : 1 986 Kbps
Width : 720 pixels
Height : 544 pixels
Display aspect ratio : 4:3
Frame rate : 23.976 fps
Color space : YUV
Chroma subsampling : 4:2:0
Bit depth : 8 bits
Scan type : Progressive
Compression mode : Lossy
Bits/(Pixel*Frame) : 0.211
Stream size : 1.24 GiB (91%)
Writing library : XviD 1.2.1 (UTC 2008-12-04)

Audio
ID : 1
Format : MPEG Audio
Format version : Version 1
Format profile : Layer 3
Mode : Joint stereo
Mode extension : MS Stereo
Codec ID : 55
Codec ID/Hint : MP3
Duration : 1h 29mn
Bit rate mode : Constant
Bit rate : 192 Kbps
Channel(s) : 2 channels
Sampling rate : 48.0 KHz
Compression mode : Lossy
Stream size : 123 MiB (9%)
Alignment : Aligned on interleaves
Interleave, duration : 42 ms (1.00 video frame)
Interleave, preload duration : 504 ms
Writing library : LAME3.98.2

pb.wtf



Скачать Вспышка через торрент http://pic.kartinco.top/images/6/k7unp.jpg Скачать фильм Вспышка через торрент бесплантно в хорошем качестве Описание: Два офицера пограничного патруля случайно находят полузасыпанный песком джип, а в нем скелет, винтовку и 800000 долларов ... 10 10 5
Info! Золотая раздача, скачанное не засчитывается.
Торрент: Зарегистрирован [2014-02-08 18:21] · скачан: 38 раз
Статус: √ проверено
Размер: 1.37 GB
Как cкачать? Как скачать Вспышка через торрент | qTorrent


>> Регистрируемся здесь <<






Отзывы и комментарии о схеме читаем и пишем здесь: ---> Отзывы и комментарии о схеме

Новые благодарочки в телеграм довольных пользователей:
скриншот   скриншот   скриншот   скриншот   скриншот
    Дорогой пользователь! Огромная просьба, поблагодарите релизера, оцените раздачу и оставьте свои комментарий, если Вы скачали Вспышка через торрент бесплатно! Внесите свою лепту в развитие PiratBit!
    Комментировать посты могут только пользователи прошедшие не сложную регистрацию
    Показать сообщения:    

    Вспышка через торрент
    Скачать бесплатно Вспышка
    Вспышка скачать торрент
    Вспышка смотреть онлайн
    Cкачать фильм Вспышка бесплатно
    Вспышка скачать торрент в хорошем качестве
    Вспышка смотреть онлайн бесплатно в хорошем качестве


    Вы не можете начинать темы
    Вы не можете отвечать на сообщения
    Вы не можете редактировать свои сообщения
    Вы не можете удалять свои сообщения
    Вы не можете голосовать в опросах
    Вы не можете прикреплять файлы к сообщениям
    Вы можете скачивать файлы