2 сезон

iTunes

MVO

1

2 сезон

iTunes

iTunes

1 сезон

RePack

30

Ultimate

ВАЖНО

ИГРА 18+

pack

RePack

MK11
pack

Легкие деньги

RePack

jed

RePack

fifa19

RePack

RDR2

RePack

NEED FOR SPEED™ PAYBACK

4 сезон

9 сезон

Бесстыжие 9 сезон

Все сериалы

все сериалы на PB.wtf

RePack

FAR CRY 5

Anonymous, добрый день, мы не успеваем собрать деньги на оплату серверов за декабрь и январь, помогите нам пожалуйста в это трудное время. В качестве благодарности мы отключим Вам всю рекламу на сайте (укажите свой ник в строку Ваше имя)!

×
  
Magnet ссылка

Добро пожаловать в джунгли / Welcome to the Jungle (Роб Мелцер) [2013, комедия, HDRip] DVO pb.wtf

Добро пожаловать в джунгли через торрент pb.wtf

Размер: 1.37 GB | Добавлен: 6 лет 11 мес. назад | Торрент скачан:2412 раз
Скачать  

08-02-2014 19:25 Добро пожаловать в джунгли Скачать торрент  

Добро пожаловать в джунгли / Welcome to the JungleГод выпуска: 2013
Страна: Пуэрто Рико, США, Великобритания
Жанр: комедия
Продолжительность: 01:34:13
Перевод: Профессиональный (двухголосый)
Субтитры: Нет
Режиссер: Роб Мелцер / Rob Meltzer
В ролях: Адам Броди (Chris), Жан-Клод Ван Дамм (Storm), Роб Хюбел (Phil), Кристен Шаал (Brenda), Меган Бун (Lisa), Деннис Хейсбёрт, Бьянка Бри (Ashley), Эрик Эдельштейн (Jared), Роберт Питерс (Dale), Аарон Такахаси (Troy), Стефани Лопез (Stephanie), Брайан Тестер (Senior Naval Officer)
Описание:
Персонал дизайнерской фирмы отправляется в отпуск на тропический остров. Коллективный отдых заканчивается самым настоящим хаосом, когда герои сталкиваются с первыми серьезными трудностями.
Рейтинг
kinopoisk.ru: 5.556 (46)
imdb.com: 5.50 (1615)
Качество: HDRip
Формат: AVI
Видео кодек: XviD
Аудио кодек: AC3
Видео: XviD, 720x304 (2.35:1), 1619 kbps, 23,976 fps, 0,309 bpp
Аудио: AC3 / 5.1 / 48 kHz / 448 kbps / 16 bit

General
Complete name : D:ТорентыDobro.Pojalovat.v.Djungli.2013.P2.HDRip.1400M.avi
Format : AVI
Format/Info : Audio Video Interleave
File size : 1.37 GiB
Duration : 1h 34mn
Overall bit rate : 2 077 Kbps
Writing application : VirtualDubMod 1.5.10.2 (build 2540/release)
Writing library : VirtualDubMod build 2540/release

Video
ID : 0
Format : MPEG-4 Visual
Format profile : Advanced Simple@L5
Format settings, BVOP : 2
Format settings, QPel : No
Format settings, GMC : No warppoints
Format settings, Matrix : Default (MPEG)
Codec ID : XVID
Codec ID/Hint : XviD
Duration : 1h 34mn
Bit rate : 1 620 Kbps
Width : 720 pixels
Height : 304 pixels
Display aspect ratio : 2.35:1
Frame rate : 23.976 fps
Color space : YUV
Chroma subsampling : 4:2:0
Bit depth : 8 bits
Scan type : Progressive
Compression mode : Lossy
Bits/(Pixel*Frame) : 0.309
Stream size : 1.07 GiB (78%)
Writing library : XviD 1.2.1 (UTC 2008-12-04)

Audio
ID : 1
Format : AC-3
Format/Info : Audio Coding 3
Mode extension : CM (complete main)
Codec ID : 2000
Duration : 1h 34mn
Bit rate mode : Constant
Bit rate : 448 Kbps
Channel(s) : 6 channels
Channel positions : Front: L C R, Side: L R, LFE
Sampling rate : 48.0 KHz
Bit depth : 16 bits
Compression mode : Lossy
Stream size : 302 MiB (22%)
Alignment : Split accross interleaves
Interleave, duration : 42 ms (1.00 video frame)
Interleave, preload duration : 500 ms
pb.wtf



Скачать Добро пожаловать в джунгли через торрент http://i4.imageban.ru/out/2014/02/08/f6c842fd5e36e97e2a4e8bbf30dcbbe2.png Скачать фильм Добро пожаловать в джунгли через торрент бесплантно в хорошем качестве Описание: Персонал дизайнерской фирмы отправляется в отпуск на тропический остров. Коллективный отдых заканчивается самым настоящим хаосом, ... 9.1 10 68
Info! Золотая раздача, скачанное не засчитывается.
Торрент: Зарегистрирован [2014-02-08 19:25] · скачан: 2 412 раз
Статус: √ проверено
Размер: 1.37 GB
Как cкачать? Как скачать Добро пожаловать в джунгли через торрент | UTorrent

28-11-2019 20:33  

Отключить всю рекламу на сайте

09-02-2014 15:55 Добро пожаловать в джунгли Скачать торрент  

Спасибо за кино,посмотрел нормально можно глянуть=)спасибо
Мarikmarakesh (УННВ) – души от души
pb.wtf



10-02-2014 08:26 Добро пожаловать в джунгли Скачать торрент  

посмотрим, спасибо зарадачуpb.wtf



12-02-2014 21:52 Добро пожаловать в джунгли Скачать торрент  

Raven
Спасибо за раздачу!pb.wtf



15-02-2014 06:45 Добро пожаловать в джунгли Скачать торрент  

rimsdub писал(а):

Спасибо за кино,посмотрел нормально можно глянуть=)спасибо
Мarikmarakesh (УННВ) – души от души

пипец, в каком случае он нормальный, очередное американское гав*о полное, тупое и никчемное!!!!!pb.wtf



16-03-2014 18:48 Добро пожаловать в джунгли Скачать торрент  

а дубляж будет или лицензионная многоголоска ато стаким переводом несмешноpb.wtf



16-03-2014 18:57 Добро пожаловать в джунгли Скачать торрент  

redko
В кино фильм не крутили.Так что дубляжа не ждите макс. многоголосый когда хз...pb.wtf



    Дорогой пользователь! Огромная просьба, поблагодарите релизера, оцените раздачу и оставьте свои комментарий, если Вы скачали Добро пожаловать в джунгли через торрент бесплатно! Внесите свою лепту в развитие PiratBit!
    Комментировать посты могут только пользователи прошедшие не сложную регистрацию
    Показать сообщения:    

    Добро пожаловать в джунгли через торрент
    Скачать бесплатно Добро пожаловать в джунгли
    Добро пожаловать в джунгли скачать торрент
    Добро пожаловать в джунгли смотреть онлайн
    Cкачать фильм Добро пожаловать в джунгли бесплатно
    Добро пожаловать в джунгли скачать торрент в хорошем качестве
    Добро пожаловать в джунгли смотреть онлайн бесплатно в хорошем качестве


    Вы не можете начинать темы
    Вы не можете отвечать на сообщения
    Вы не можете редактировать свои сообщения
    Вы не можете удалять свои сообщения
    Вы не можете голосовать в опросах
    Вы не можете прикреплять файлы к сообщениям
    Вы можете скачивать файлы