>

5.6

iTunes

6.1

MVO

5.7

MVO

1

7.4

1 сезон

6.8

iTunes

7.2

1 сезон

13

6.7

1 сезон

8.3

RePack

30

Deluxe

pack

9.9

Лицензия

ВАЖНО

ИГРА 18+

pack

7.3

RePack

MK11

7.7

RePack

jed

7.8

RePack

fifa19

8.5

RePack

RDR2

RePack

NEED FOR SPEED™ PAYBACK

4 сезон

9 сезон

Бесстыжие 9 сезон

Все сериалы

все сериалы на PB.wtf

RePack

FAR CRY 5

Anonymous, добрый день, мы катастрофически не успеваем собрать деньги на оплату серверов, помогите нам пожалуйста 5,10,15р., для нас важна любая помощь . В качестве благодарности мы отключим Вам всю рекламу на сайте (укажите свой ник в строку Ваше имя)!

×
  
Magnet ссылка

За последней чертой (Николай Стамбула) [1991 г., Драма, криминал, DVB] pb.wtf

За последней чертой через торрент pb.wtf

Качают: 1 [ 0 KB/s ]
Размер: 2.66 GB | Добавлен: 7 лет 7 мес. назад | Торрент скачан:63 раза
Смотреть онлайн За последней чертой | Скачать    Ребята, помогите собрать деньги на оплату серверов!!!

09-02-2014 13:52 За последней чертой Скачать торрент  

За последней чертой
Год выпуска: 1991
Страна: СССР "Мосфильм"
Жанр: Драма, криминал
Продолжительность: 01:40:26

Режиссер: Николай Стамбула
Сценарий: Эдуард Володарский



В ролях: Евгений Сидихин, Игорь Тальков, Алина Таркинская, Александр Казаков, Виктор Степанов, Татьяна Лютаева, Владимир Яковлев, Екатерина Кмит, Владимир Тальков, Игорь Миркурбанов, Владимир Ниско

Описание: Виктор Дрёмов, бывший московский боксер-чемпион, заслуженный мастер спорта, был осужден на три года за то, что "одному хмырю болотному" (у которого папаша - замминистра) кости поломал. Выйдя из тюрьмы, он узнаёт, что любимая не дождалась, изменила - "богатенький Буратино" подвернулся. Нашел было Виктор подходящую работу (тренером в ФРГ), министр туризма и спорта Баварии обратился в Федерацию бокса, а тамошний чиновник ему объяснил, что Дрёмов является уголовным элементом, и налаживать с ним какие-либо деловые контакты не рекомендуется. Работы нет, денег нет, приходится продать единственную оставшуюся ценную вещь - машину. Но показавшийся поначалу солидным покупателем, Георгий (Гарик) оказывается бандитом и вместе с двумя своими подручными угоняет "волгу" Дрёмова...

Качество: DVB
Формат: AVI
Видео кодек: MPEG2
Аудио кодек: MPEG Audio
Видео: MPEG2 Video, 704x576 (4:3), 25.00fps, 3 526 Kbps
Аудио: MPEG Audio, 48000Hz, stereo, 192kbps
Релиз от: ZidaneValKor





General
Complete name : D:�7 02 1013За последней чертойЗа последней чертой.mpg
Format : MPEG-PS
File size : 2.66 GiB
Duration : 1h 40mn
Overall bit rate mode : Variable
Overall bit rate : 3 794 Kbps

Video
ID : 224 (0xE0)
Format : MPEG Video
Format version : Version 2
Format profile : Main@Main
Format settings, BVOP : Yes
Format settings, Matrix : Custom
Duration : 1h 40mn
Bit rate mode : Variable
Bit rate : 3 526 Kbps
Maximum bit rate : 15.0 Mbps
Width : 704 pixels
Height : 576 pixels
Display aspect ratio : 4:3
Frame rate : 25.000 fps
Standard : PAL
Color space : YUV
Chroma subsampling : 4:2:0
Bit depth : 8 bits
Scan type : Interlaced
Scan order : Top Field First
Compression mode : Lossy
Bits/(Pixel*Frame) : 0.348
Stream size : 2.47 GiB (93%)

Audio
ID : 192 (0xC0)
Format : MPEG Audio
Format version : Version 1
Format profile : Layer 2
Duration : 1h 40mn
Bit rate mode : Constant
Bit rate : 192 Kbps
Channel(s) : 2 channels
Sampling rate : 48.0 KHz
Compression mode : Lossy
Stream size : 138 MiB (5%)

pb.wtf



Скачать За последней чертой через торрент https://pic1.kartinco.top/images/61/51b84.jpg Скачать, смотреть онлайн За последней чертой бесплантно в хорошем качестве Описание: Виктор Дрёмов, бывший московский боксер-чемпион, заслуженный мастер спорта, был осужден на три года за то, что "одному хмырю ... 9.8 10 14
Info! Золотая раздача, скачанное не засчитывается.
Торрент: Зарегистрирован [2014-02-09 13:52] · скачан: 63 раз
Статус: √ проверено
Размер: 2.66 GB
Как cкачать? Как скачать За последней чертой через торрент | UTorrent

% Раздел Тема Автор DL S | L
Кино СССР [ 1.37 GB ] За последней чертой [1991 DVDRip] Warhed Скачать
1 | 0

28-11-2019 20:33  

Отключить всю рекламу на сайте

09-02-2014 14:03 За последней чертой Скачать торрент  

В 90-х был сильный фильм,игра Талькова и Сидихина ,на мой взгляд -выше всяких похвал,хочу Талькова клипы найти в хорошем качестве,но увы....У кого есть скиньте,пожалуйста!!!!!pb.wtf



    Дорогой пользователь! Огромная просьба, поблагодарите релизера, оцените раздачу и оставьте свои комментарий, если Вы скачали За последней чертой через торрент бесплатно!
    Комментировать посты могут только пользователи прошедшие не сложную регистрацию
    Показать сообщения:    

    За последней чертой через торрент
    Скачать бесплатно За последней чертой
    За последней чертой скачать торрент
    За последней чертой смотреть онлайн
    Cкачать фильм За последней чертой бесплатно
    За последней чертой скачать торрент в хорошем качестве
    За последней чертой смотреть онлайн бесплатно в хорошем качестве


    Вы не можете начинать темы
    Вы не можете отвечать на сообщения
    Вы не можете редактировать свои сообщения
    Вы не можете удалять свои сообщения
    Вы не можете голосовать в опросах
    Вы не можете прикреплять файлы к сообщениям
    Вы можете скачивать файлы