Ссылка на приватное зеркало нашего сайта всего за 1$. Внимание количество ограничено!!!

2 сезон

iTunes

iTunes

1

iTunes

iTunes

iTunes

WEBRip

iTunes

30
pack

Вам бонус

ВАЖНО

!!Акция!!

Alien_RageХит недели

RePack

Horizon Zero Dawn

ИГРА 18+

pack

RePack

jed

!!Акция!!

Alien_Rage

RePack

fifa19

RePack

Assassins Creed: Odyssey

RePack

NEED FOR SPEED™ PAYBACK

4 сезон

9 сезон

Бесстыжие 9 сезон

Все сериалы

все сериалы на PB.wtf

RePack

FAR CRY 5
  

Америкэн бой (Борис Квашнев) [1992 г., Боевик, триллер, криминал, DVDRip] pb.wtf

Америкэн бой через торрент pb.wtf

Размер: 1.45 GB | Добавлен: 6 лет 7 мес. назад | Торрент скачан:42 раза
Скачать  

09-02-2014 14:55 Америкэн бой Скачать торрент  

Америкэн бой
Год выпуска: 1992
Страна: Украина Укртелефильм, Lybid, Univex
Жанр: Боевик, триллер, криминал
Продолжительность: 01:50:33

Режиссер: Борис Квашнев
Продюссер: Сергей Лобанов
Сценарий: Юрий Рогоза



В ролях: Александр Песков, Владимир Гостюхин, Анна Унигорская, Галина Мороз, Валерий Свищев, Анатолий Хостикоев, Гия Лежава, Сергей Пономаренко, Сергей Асовский, Олег Игнатьев

Описание: После афганского плена Николай Найденов, бывший детдомовец, попадает в США, устраивается на работу инструктором в один из спортивных клубов, женится и получает американское гражданство. Жизнь складывается как нельзя лучше. Через некоторое время он приезжает на свою бывшую родину к армейскому другу Сергею и узнает от его жены, что Сергей убит по заказу главарей одного из кланов местной мафии. На следующий день боевики, после зверских пыток, несколькими ударами в живот убивают и беременную жену Сергея…

Качество: DVDRip
Формат: AVI
Видео кодек: XviD
Аудио кодек: AC3
Видео: Xvid 704x528, 25.00fps, 1 423 Kbps
Аудио: Dolby AC3, 48000Hz, 6ch, 448kbps
Релиз от: 0ptimus





General
Complete name : D:�7 02 1013Ameriken.boj.1992.XviD.DVDRip.Kinozal.TV.avi
Format : AVI
Format/Info : Audio Video Interleave
File size : 1.45 GiB
Duration : 1h 50mn
Overall bit rate : 1 880 Kbps
Movie name : Америкэн бой / 1992
Director : 0ptimus
Genre : Action
Writing application : VirtualDubMod 1.5.10.2 (build 2540/release)
Writing library : VirtualDubMod build 2540/release
Original source form/Name : Movie

Video
ID : 0
Format : MPEG-4 Visual
Format profile : Advanced Simple@L5
Format settings, BVOP : 1
Format settings, QPel : No
Format settings, GMC : No warppoints
Format settings, Matrix : Default (MPEG)
Codec ID : XVID
Codec ID/Hint : XviD
Duration : 1h 50mn
Bit rate : 1 423 Kbps
Width : 704 pixels
Height : 528 pixels
Display aspect ratio : 4:3
Frame rate : 25.000 fps
Color space : YUV
Chroma subsampling : 4:2:0
Bit depth : 8 bits
Scan type : Progressive
Compression mode : Lossy
Bits/(Pixel*Frame) : 0.153
Stream size : 1.10 GiB (76%)
Writing library : XviD 1.2.1 (UTC 2008-12-04)

Audio
ID : 1
Format : AC-3
Format/Info : Audio Coding 3
Mode extension : CM (complete main)
Codec ID : 2000
Duration : 1h 50mn
Bit rate mode : Constant
Bit rate : 448 Kbps
Channel(s) : 6 channels
Channel positions : Front: L C R, Side: L R, LFE
Sampling rate : 48.0 KHz
Bit depth : 16 bits
Compression mode : Lossy
Delay relative to video : 250ms
Stream size : 354 MiB (24%)
Alignment : Split accross interleaves
Interleave, duration : 40 ms (1.00 video frame)
Interleave, preload duration : 500 ms

pb.wtf



Скачать Америкэн бой через торрент http://pic.kartinco.top/images/6/tmp7m.jpg Скачать фильм Америкэн бой через торрент бесплантно в хорошем качестве Описание: После афганского плена Николай Найденов, бывший детдомовец, попадает в США, устраивается на работу инструктором в один из ... 9.9 10 9
Info! Золотая раздача, скачанное не засчитывается.
Торрент: Зарегистрирован [2014-02-09 14:55] · скачан: 42 раз
Статус: √ проверено
Размер: 1.45 GB
Как cкачать? Как скачать Америкэн бой через торрент | qTorrent

% Раздел Тема Автор DL S | L
Наши фильмы, до 2010 [ 1.45 GB ] Америкэн бой [1992 SATRip by _Один_777] Один 777 Скачать
1 | 0
Наши фильмы, до 2010 [ 750 MB ] Америкэн бой [1992 SATRip by _Один_777] Один 777 Скачать
1 | 0

28-11-2019 20:33  

Отключить всю рекламу на сайте

09-02-2014 15:06 Америкэн бой Скачать торрент  

Фильм к 23 февраля,в память нашим погибшим парням в Афгане :paratrooper:
Светлая им память!!!!pb.wtf



09-02-2014 16:18 Америкэн бой Скачать торрент  

20 лет прошло, а ничего не изменилосьpb.wtf



09-02-2014 16:39 Америкэн бой Скачать торрент  

в моем родном Херсоне снимался!
хорошее киноpb.wtf



09-02-2014 16:48 Америкэн бой Скачать торрент  

Spartan4eg писал(а):

в моем родном Херсоне снимался!
хорошее кино

а фото есть тех мест ,где снимался фильм,было бы неплохо сравнить,всеже 20 лет прошло,если можно,то в личкуpb.wtf



09-02-2014 18:20 Америкэн бой Скачать торрент  

фильм классный!!!один из лучших отечественных боевиковpb.wtf



    Дорогой пользователь! Огромная просьба, поблагодарите релизера, оцените раздачу и оставьте свои комментарий, если Вы скачали Америкэн бой через торрент бесплатно! Внесите свою лепту в развитие PiratBit!
    Комментировать посты могут только пользователи прошедшие не сложную регистрацию
    Показать сообщения:    

    Америкэн бой через торрент
    Скачать бесплатно Америкэн бой
    Америкэн бой скачать торрент
    Америкэн бой смотреть онлайн
    Cкачать фильм Америкэн бой бесплатно
    Америкэн бой скачать торрент в хорошем качестве
    Америкэн бой смотреть онлайн бесплатно в хорошем качестве


    Вы не можете начинать темы
    Вы не можете отвечать на сообщения
    Вы не можете редактировать свои сообщения
    Вы не можете удалять свои сообщения
    Вы не можете голосовать в опросах
    Вы не можете прикреплять файлы к сообщениям
    Вы можете скачивать файлы