Ссылка на приватное зеркало нашего сайта всего за 1$. Внимание количество ограничено!!!

2 сезон

iTunes

1 сезон

1

iTunes

iTunes

iTunes

1 сезон

RePack

30

ИГРА 18+

pack

ВАЖНО

!!Акция!!

Alien_RageХит недели

RePack

MK11
pack

Забери бонус

RePack

jed

!!Акция!!

Alien_Rage

RePack

fifa19

RePack

Assassins Creed: Odyssey

RePack

NEED FOR SPEED™ PAYBACK

4 сезон

9 сезон

Бесстыжие 9 сезон

Все сериалы

все сериалы на PB.wtf

RePack

FAR CRY 5
  

К сокровищам авиакатастрофы / Гонка к Янки Зефиру / Race for the Yankee Zephyr (Дэвид Хеммингс) [1981 г., боевик, драма, приключения, BDRip 1080p, MVO + DUB + DVO + AVO + Original Eng] pb.wtf

К сокровищам авиакатастрофы через торрент pb.wtf

Размер: 9.95 GB | Добавлен: 6 лет 8 мес. назад | Торрент скачан:57 раз
Скачать  

09-02-2014 15:09 К сокровищам авиакатастрофы Скачать торрент  

К сокровищам авиакатастрофы / Гонка к Янки Зефиру / Race for the Yankee Zephyr«Finding it after four decades is quite a challenge . . . but holding onto it is really an adventure!»

Год выпуска: 1981
Страна: Австралия, Новая Зеландия, США
Жанр: боевик, драма, приключения
Продолжительность: 01:49:50
Перевод: Профессиональный многоголосый (R5); Дублированный (Комбо дубляж); Профессиональный двухголосый (НТВ); Авторский одноголосый (Ю. Немахов)
Субтитры: Русские


Режиссер: Дэвид Хеммингс
Продюссер: Джон Барнетт, Энтони И. Джиннане, Дэвид Хеммингс
Сценарий: Эверетт Де Рош

Бюджет: $6 000 000
Премьера в мире: 18 декабря 1981







В ролях: Кен Уол, Лесли Энн Уоррен, Дональд Плезенс, Джордж Пеппард, Бруно Лоуренс, Грант Тилли, Роберт Брюс, Гарри Разерфорд-Джонс, Тони Спаркс, Кларк Уокингтон




Описание: В озере, в высокогорьях Новой Зеландии, охотник Гибби Гибсон обнаруживает самолет потерпевший крушение во времена Второй Мировой Войны. Когда он рассказывает об этом, гангстеры начинают преследовать его, угрожая ему и его дочери, потому что они знают, где находятся 50 миллионов долларов пропавшие при крушении. Пилот вертолета Барни, рискуя своей жизнью, помогает Гибби бороться с ними...




Качество: BDRip 1080p
Формат: MKV
Видео кодек: AVC
Аудио кодек: AC3
Видео: MPEG-4 AVC, 12 Mбит/с, 1920x820, 23.976 кадр/с
Аудио#1: Русский (AC3, 2 ch, 192 Кбит/с) / Профессиональный многоголосый (R5)
Аудио#2: Русский (AC3, 2 ch, 192 Кбит/с) / Дублированный (Комбо дубляж)
Аудио#3: Русский (AC3, 2 ch, 192 Кбит/с) / Профессиональный двухголосый (НТВ)
Аудио#4: Русский (AC3, 2 ch, 192 Кбит/с) / Авторский одноголосый (Ю. Немахов)
Аудио#5: Английский (AC3, 2 ch, 192 Кбит/с)

скриншот   скриншот   скриншот   скриншот   скриншот   скриншот   скриншот   скриншот   скриншот   скриншот  

Общее
Уникальный идентификатор : 211616776313177906439812811724474491590 (0x9F33E89B8ECF89BFBE52CF64E24F22C6)
Полное имя : D:Mои раздачиRace.for.the.Yankee.Zephyr.1981.BDRip.(1080p)-MediaClub.mkv
Формат : Matroska
Версия формата : Version 4 / Version 2
Размер файла : 9,95 Гбайт
Продолжительность : 1 ч. 49 м.
Общий поток : 13,0 Мбит/сек
Название фильма : -=MediaClub-kaspr=-
Дата кодирования : UTC 2014-02-03 07:12:51
Программа кодирования : mkvmerge v6.1.0 ('Old Devil') built on Mar 4 2013 09:10:42
Библиотека кодирования : libebml v1.3.0 + libmatroska v1.4.0

Видео
Идентификатор : 1
Формат : AVC
Формат/Информация : Advanced Video Codec
Профиль формата : High@L4.1
Параметр CABAC формата : Да
Параметр ReFrames формата : 4 кадра
Идентификатор кодека : V_MPEG4/ISO/AVC
Продолжительность : 1 ч. 49 м.
Битрейт : 12,0 Мбит/сек
Ширина : 1920 пикселей
Высота : 820 пикселей
Соотношение сторон : 2,35:1
Режим частоты кадров : Постоянный
Частота кадров : 23,976 кадра/сек
Цветовое пространство : YUV
Субдискретизация насыщенности : 4:2:0
Битовая глубина : 8 бит
Тип развёртки : Прогрессивная
Бит/(Пиксели*Кадры) : 0.318
Размер потока : 9,01 Гбайт (91%)
Заголовок : -=MediaClub-kaspr=-
Библиотека кодирования : x264 core 142 r2389kMod 956c8d8
Настройки программы : cabac=1 / ref=4 / deblock=1:-3:-3 / analyse=0x3:0x133 / me=umh / subme=11 / psy=1 / fade_compensate=0.00 / psy_rd=1.00:0.20 / mixed_ref=1 / me_range=32 / chroma_me=1 / trellis=2 / 8x8dct=1 / cqm=0 / deadzone=21,11 / fast_pskip=0 / chroma_qp_offset=-3 / threads=12 / lookahead_threads=2 / sliced_threads=0 / nr=0 / decimate=0 / interlaced=0 / bluray_compat=0 / constrained_intra=0 / fgo=0 / bframes=8 / b_pyramid=2 / b_adapt=2 / b_bias=0 / direct=3 / weightb=1 / open_gop=0 / weightp=2 / keyint=240 / keyint_min=23 / scenecut=40 / intra_refresh=0 / rc=2pass / mbtree=0 / bitrate=12000 / ratetol=1.0 / qcomp=0.60 / qpmin=0 / qpmax=69 / qpstep=4 / cplxblur=20.0 / qblur=0.5 / ip_ratio=1.40 / pb_ratio=1.30 / aq=1:1.00
Язык : English
Default : Да
Forced : Нет

Аудио #1
Идентификатор : 2
Формат : AC-3
Формат/Информация : Audio Coding 3
Расширение режима : CM (complete main)
Параметр Endianness формата : Big
Идентификатор кодека : A_AC3
Продолжительность : 1 ч. 49 м.
Вид битрейта : Постоянный
Битрейт : 192 Кбит/сек
Каналы : 2 канала
Расположение каналов : Front: L R
Частота : 48,0 КГц
Битовая глубина : 16 бит
Метод сжатия : С потерями
Размер потока : 151 Мбайт (1%)
Заголовок : MVO (R5)
Язык : Russian
Default : Да
Forced : Да

Аудио #2
Идентификатор : 3
Формат : AC-3
Формат/Информация : Audio Coding 3
Расширение режима : CM (complete main)
Параметр Endianness формата : Big
Идентификатор кодека : A_AC3
Продолжительность : 1 ч. 49 м.
Вид битрейта : Постоянный
Битрейт : 192 Кбит/сек
Каналы : 2 канала
Расположение каналов : Front: L R
Частота : 48,0 КГц
Битовая глубина : 16 бит
Метод сжатия : С потерями
Размер потока : 151 Мбайт (1%)
Заголовок : Дублированный (комбо дубляж)
Язык : Russian
Default : Нет
Forced : Нет

Аудио #3
Идентификатор : 4
Формат : AC-3
Формат/Информация : Audio Coding 3
Расширение режима : CM (complete main)
Параметр Endianness формата : Big
Идентификатор кодека : A_AC3
Продолжительность : 1 ч. 49 м.
Вид битрейта : Постоянный
Битрейт : 192 Кбит/сек
Каналы : 2 канала
Расположение каналов : Front: L R
Частота : 48,0 КГц
Битовая глубина : 16 бит
Метод сжатия : С потерями
Размер потока : 151 Мбайт (1%)
Заголовок : DVO (HTB)
Язык : Russian
Default : Нет
Forced : Нет

Аудио #4
Идентификатор : 5
Формат : AC-3
Формат/Информация : Audio Coding 3
Расширение режима : CM (complete main)
Параметр Endianness формата : Big
Идентификатор кодека : A_AC3
Продолжительность : 1 ч. 49 м.
Вид битрейта : Постоянный
Битрейт : 192 Кбит/сек
Каналы : 2 канала
Расположение каналов : Front: L R
Частота : 48,0 КГц
Битовая глубина : 16 бит
Метод сжатия : С потерями
Размер потока : 151 Мбайт (1%)
Заголовок : AVO (Ю.Немахов)
Язык : Russian
Default : Нет
Forced : Нет

Аудио #5
Идентификатор : 6
Формат : AC-3
Формат/Информация : Audio Coding 3
Расширение режима : CM (complete main)
Параметр Endianness формата : Big
Идентификатор кодека : A_AC3
Продолжительность : 1 ч. 49 м.
Вид битрейта : Постоянный
Битрейт : 192 Кбит/сек
Каналы : 2 канала
Расположение каналов : Front: L R
Частота : 48,0 КГц
Битовая глубина : 16 бит
Метод сжатия : С потерями
Размер потока : 151 Мбайт (1%)
Язык : English
Default : Нет
Forced : Нет

Текст
Идентификатор : 7
Формат : UTF-8
Идентификатор кодека : S_TEXT/UTF8
Идентификатор кодека/Информация : UTF-8 Plain Text
Язык : Russian
Default : Нет
Forced : Нет

Меню
00:00:00.000 : en:Chapter 01
00:09:12.843 : en:Chapter 02
00:17:58.786 : en:Chapter 03
00:25:58.139 : en:Chapter 04
00:35:46.477 : en:Chapter 05
00:46:32.206 : en:Chapter 06
00:54:44.864 : en:Chapter 07
01:05:06.444 : en:Chapter 08
01:12:06.447 : en:Chapter 09
01:20:56.059 : en:Chapter 10
01:31:04.292 : en:Chapter 11
01:39:03.270 : en:Chapter 12
01:49:50.584 : en:Chapter 13


К сокровищам авиакатастрофы скачать торрент


pb.wtf



Скачать К сокровищам авиакатастрофы через торрент http://pic.kartinco.top/images/6/olthk.jpg Скачать фильм К сокровищам авиакатастрофы через торрент бесплантно в хорошем качестве Описание: В озере, в высокогорьях Новой Зеландии, охотник Гибби Гибсон обнаруживает самолет потерпевший крушение во времена Второй Мировой ... 9.9 10 7
Info! Золотая раздача, скачанное не засчитывается.
Торрент: Зарегистрирован [2014-02-09 15:09] · скачан: 57 раз
Статус: √ проверено
Размер: 9.95 GB
Как cкачать? Как скачать К сокровищам авиакатастрофы через торрент | qTorrent

28-11-2019 20:33  

Отключить всю рекламу на сайте

09-02-2014 15:26 К сокровищам авиакатастрофы Скачать торрент  

Отличный фильм,давно есть в коллекции !!!!Кто не смотрел-рекомендую!!!pb.wtf



09-02-2014 16:19 К сокровищам авиакатастрофы Скачать торрент  

да фильм весьма пристойный
особенно гонкиpb.wtf



09-02-2014 17:28 К сокровищам авиакатастрофы Скачать торрент  

lug30 писал(а):

Отличный фильм,давно есть в коллекции !!!!Кто не смотрел-рекомендую!!!

Поддерживаю !!!pb.wtf



21-01-2016 14:07 К сокровищам авиакатастрофы Скачать торрент  

Смотрел его в 80х в кинотеатре. понравилось жутко. Для той поры было отличное кино. По настальгирую и пересмотрю.pb.wtf



21-01-2016 14:12 К сокровищам авиакатастрофы Скачать торрент  

Народ вернись на раздачу.pb.wtf



    Дорогой пользователь! Огромная просьба, поблагодарите релизера, оцените раздачу и оставьте свои комментарий, если Вы скачали К сокровищам авиакатастрофы через торрент бесплатно! Внесите свою лепту в развитие PiratBit!
    Комментировать посты могут только пользователи прошедшие не сложную регистрацию
    Показать сообщения:    

    К сокровищам авиакатастрофы через торрент
    Скачать бесплатно К сокровищам авиакатастрофы
    К сокровищам авиакатастрофы скачать торрент
    К сокровищам авиакатастрофы смотреть онлайн
    Cкачать фильм К сокровищам авиакатастрофы бесплатно
    К сокровищам авиакатастрофы скачать торрент в хорошем качестве
    К сокровищам авиакатастрофы смотреть онлайн бесплатно в хорошем качестве


    Вы не можете начинать темы
    Вы не можете отвечать на сообщения
    Вы не можете редактировать свои сообщения
    Вы не можете удалять свои сообщения
    Вы не можете голосовать в опросах
    Вы не можете прикреплять файлы к сообщениям
    Вы можете скачивать файлы