новый адрес
Мега распродажа FORZA HORIZON 4 ULTIMATE+ВСЕ DLC+ОНЛАЙН всего за 499р. 349 руб. (супер цена). Внимание количество ограничено!!!

iTunes

1+1

iTunes

мы

iTunes

1

iTunes

Чернобыль

iTunes

Ральф против интернета

Лицензия

ПШазам

Лицензия

Игра престолов

Лицензия

30
pack

ВАЖНО

!!Акция!!

Alien_RageХит недели

RePack

Resident Evil 21

ИГРА 18+

pack

RePack

Metro:Exodus

!!Акция!!

Alien_Rage

RePack

fifa19

RePack

Assassins Creed: Odyssey

RePack

NEED FOR SPEED™ PAYBACK

3 сезон

9 сезон

Бесстыжие 9 сезон

Все сериалы

все сериалы на PB.wtf

RePack

FAR CRY 5
Ребята, катастрофически не хватает 1900р. для оплаты серверов за Октябрь (всвязи с блокировками трафик упал в 3 раза), 1-2р., выручайте.
  

Пираты XX века (Борис Дуров) [1979, Боевик, DVDRip] pb.wtf

Пираты XX века через торрент pb.wtf

Размер: 1.37 GB | Добавлен: 5 лет 9 мес. назад | Торрент скачан:194 раза
Скачать  

09-02-2014 16:42 Пираты XX века Скачать торрент  

Пираты XX века
Год выпуска: 1979
Страна: СССР
Жанр: Боевик
Продолжительность: 01:19:53
Перевод: Не требуется

Режиссер: Борис Дуров

В ролях: Николай Еременко, Петр Вельяминов, Талгат Нигматулин, Рейно Арен, Дилором Камбарова, Наталья Харахорина, Джахангир Шахмурадов, Юрий Кутырев, Тадеуш Касьянов, Майя Эглите, Виктор Жиганов, Георгий Мартиросян, Леонид Трутнев, Владимир Епископосян.

Описание: Советский сухогрузный корабль перевозил большой груз опиума для фармакологической промышленности.
Современные пираты, охотившиеся за ценным грузом, коварством завладели кораблем и экипажем. Чтобы не осталось
свидетелей этого разбойного нападения, пираты попытались уничтожить всю команду корабля. В океанских просторах
разыгралась напряженная борьба между горсткой советских моряков и современными разбойниками, не знающими пощады.


Формат: DVDRip
Видео кодек: XviD
Аудио кодек: AC3
Видео: 720x320 (2.25:1), 25 fps, XviD build 50 ~1991 kbps avg, 0.34 bit/pixel
Аудио: 48 kHz, AC3 Dolby Digital, 6 ch, ~448.00 kbps avg
General
Complete name : E:INTERNETPiraty_XX_veka.1979.DVDRip.avi
Format : AVI
Format/Info : Audio Video Interleave
File size : 1.37 GiB
Duration : 1h 19mn
Overall bit rate : 2 449 Kbps
Movie name : Пираты XX века
Genre : Action/Adventure
Writing application : VirtualDubMod 1.5.10.2 (build 2540/release)
Writing library : VirtualDubMod build 2540/release

Video
ID : 0
Format : MPEG-4 Visual
Format profile : Advanced Simple@L5
Format settings, BVOP : 1
Format settings, QPel : No
Format settings, GMC : No warppoints
Format settings, Matrix : Default (MPEG)
Codec ID : XVID
Codec ID/Hint : XviD
Duration : 1h 19mn
Bit rate : 1 991 Kbps
Width : 720 pixels
Height : 320 pixels
Display aspect ratio : 2.25:1
Frame rate : 25.000 fps
Color space : YUV
Chroma subsampling : 4:2:0
Bit depth : 8 bits
Scan type : Progressive
Compression mode : Lossy
Bits/(Pixel*Frame) : 0.346
Stream size : 1.11 GiB (81%)
Writing library : XviD 1.2.1 (UTC 2008-12-04)

Audio
ID : 1
Format : AC-3
Format/Info : Audio Coding 3
Mode extension : CM (complete main)
Codec ID : 2000
Duration : 1h 19mn
Bit rate mode : Constant
Bit rate : 448 Kbps
Channel(s) : 6 channels
Channel positions : Front: L C R, Side: L R, LFE
Sampling rate : 48.0 KHz
Bit depth : 16 bits
Compression mode : Lossy
Delay relative to video : 11s 480ms
Stream size : 256 MiB (18%)
Alignment : Split accross interleaves
Interleave, duration : 40 ms (1.00 video frame)
Interleave, preload duration : 500 ms
pb.wtf



Скачать Пираты XX века через торрент http://i33.fastpic.ru/big/2014/0209/2d/6aad254b3f04e25fe3820ea2155e082d.jpg Скачать фильм Пираты XX века через торрент бесплантно в хорошем качестве Описание: Советский сухогрузный корабль перевозил большой груз опиума для фармакологической промышленности. Современные пираты, ... 9.4 10 18
Info! Золотая раздача, скачанное не засчитывается.
Торрент: Зарегистрирован [2014-02-09 16:42] · скачан: 194 раз
Статус: √ проверено
Размер: 1.37 GB
Как cкачать? Как скачать Пираты XX века через торрент | qTorrent


>> Регистрируемся здесь <<






Отзывы и комментарии о схеме читаем и пишем здесь: ---> Отзывы и комментарии о схеме

Новые благодарочки в телеграм довольных пользователей:
скриншот   скриншот   скриншот   скриншот   скриншот

09-02-2014 17:43 Пираты XX века Скачать торрент  

Отличный боевичок:Николай Еременко и Талгат Нигматулин Классс!pb.wtf



11-02-2014 10:27 Пираты XX века Скачать торрент  

Отличные актеры. Пусть земля им будет пухом...pb.wtf



    Дорогой пользователь! Огромная просьба, поблагодарите релизера, оцените раздачу и оставьте свои комментарий, если Вы скачали Пираты XX века через торрент бесплатно! Внесите свою лепту в развитие PiratBit!
    Комментировать посты могут только пользователи прошедшие не сложную регистрацию
    Показать сообщения:    

    Пираты XX века через торрент
    Скачать бесплатно Пираты XX века
    Пираты XX века скачать торрент
    Пираты XX века смотреть онлайн
    Cкачать фильм Пираты XX века бесплатно
    Пираты XX века скачать торрент в хорошем качестве
    Пираты XX века смотреть онлайн бесплатно в хорошем качестве


    Вы не можете начинать темы
    Вы не можете отвечать на сообщения
    Вы не можете редактировать свои сообщения
    Вы не можете удалять свои сообщения
    Вы не можете голосовать в опросах
    Вы не можете прикреплять файлы к сообщениям
    Вы можете скачивать файлы