Ссылка на приватное зеркало нашего сайта всего за 1$. Внимание количество ограничено!!!

2 сезон

iTunes

1 сезон

1

2 сезон

2 сезон

iTunes

1 сезон

RePack

30

Новинка

ВАЖНО

ИГРА 18+

pack

RePack

MK11
pack

Забери бонус

RePack

jed

!!Акция!!

Alien_Rage

RePack

fifa19

RePack

Assassins Creed: Odyssey

RePack

NEED FOR SPEED™ PAYBACK

4 сезон

9 сезон

Бесстыжие 9 сезон

Все сериалы

все сериалы на PB.wtf

RePack

FAR CRY 5
  

Чистильщик / Cleaner (Ренни Харлин) [2007 г., триллер, криминал, детектив, BD-Remux, DUB, MVO, AVO, Original, SUB] pb.wtf

Чистильщик через торрент pb.wtf

Размер: 20.96 GB | Добавлен: 6 лет 9 мес. назад | Торрент скачан:10 раз
Скачать  

10-02-2014 13:07 Чистильщик Скачать торрент  

Чистильщик / Cleaner

Год выпуска: 2007
Страна: США
Жанр: триллер, криминал, детектив
Продолжительность: 01:28:46
Перевод: Дубляж + Многоголосый + Авторский
Субтитры: Russian, English

Режиссер: Ренни Харлин
Продюссер: Майкл П. Флэннигэн, Стив Голин, Лати Гробман
Сценарий: Мэттью Олдрич
Бюджет: $818 044
Премьера в мире: 11 сентября 2007

IMDB 6.10 (27 477)


В ролях: Сэмюэл Л. Джексон, Ева Мендес, Эд Харрис, Джон Т. Биллингсли, Эрик Браун, Криста Кэмпбелл, Хосе Пабло Кантилльо

Описание: Главный герой картины работает чистильщиком — он убирает... места преступлений. Однажды случилось так, что «чистильщик» убрал место убийства свидетеля, проходящего по делу о взяточничестве в полиции. Теперь герой вынужден сам разгадать загадку, прежде чем признает свое присутствие на месте преступления. Он рискует головой, так как только он знает, что к делу об убийстве причастен полицейский.

Качество: BD-Remux
Формат: BDMV
Видео кодек: AVC
Аудио кодек: DTS-HD Ma / AC3
Видео: MPEG-4 AVC Video, 22998 kbps, 1980x1080p / 23,976 fps / 16:9 / High Profile 4.1
Аудио#1: Englisn: DTS-HD Master Audio, 3962 kbps, 5.1, 48 kHz (DTS Core: 5.1 / 48 kHz / 1509 kbps / 24-bit)
Аудио#2: Russian: DTS-HD Master Audio, 3900 kbps, 5.1, 48 kHz (DTS Core: 5.1 / 48 kHz / 1509 kbps / 24-bit) – закадровый (авторский одноголосый, Гаврилов);
Аудио#3: Russian: AC3, 5.1, 448 kbps, 48 kHz - Дублированный
Аудио#4: Russian: AC3, 5.1, 448 kbps, 48 kHz - Многоголосый
ID : 1 (0x1)
Complete name : /home/sb753/files/Cleaner.2007.Remux.HDTracker/BDMV/STREAM/00000.m2ts
Format : BDAV
Format/Info : Blu-ray Video
File size : 21.0 GiB
Duration : 1h 28mn
Overall bit rate mode : Variable
Overall bit rate : 33.8 Mbps
Maximum Overall bit rate : 35.5 Mbps

Video
ID : 4113 (0x1011)
Menu ID : 1 (0x1)
Format : AVC
Format/Info : Advanced Video Codec
Format profile : High@L4.1
Format settings, CABAC : Yes
Format settings, ReFrames : 4 frames
Codec ID : 27
Duration : 1h 28mn
Bit rate mode : Variable
Bit rate : 26.6 Mbps
Maximum bit rate : 38.9 Mbps
Width : 1 920 pixels
Height : 1 080 pixels
Display aspect ratio : 16:9
Frame rate : 23.976 fps
Standard : NTSC
Color space : YUV
Chroma subsampling : 4:2:0
Bit depth : 8 bits
Scan type : Progressive
Bits/(Pixel*Frame) : 0.535
Stream size : 16.5 GiB (79%)
Color primaries : BT.709-5, BT.1361, IEC 61966-2-4, SMPTE RP177
Transfer characteristics : BT.709-5, BT.1361
Matrix coefficients : BT.709-5, BT.1361, IEC 61966-2-4 709, SMPTE RP177

Audio #1
ID : 4352 (0x1100)
Menu ID : 1 (0x1)
Format : DTS
Format/Info : Digital Theater Systems
Format profile : MA / Core
Muxing mode : Stream extension
Codec ID : 134
Duration : 1h 28mn
Bit rate mode : Variable
Bit rate : 3 349 Kbps / 1 510 Kbps
Channel(s) : 6 channels
Channel positions : Front: L C R, Side: L R, LFE
Sampling rate : 48.0 KHz
Bit depth : 24 bits
Compression mode : Lossless / Lossy
Language : English

Audio #2
ID : 4353 (0x1101)
Menu ID : 1 (0x1)
Format : DTS
Format/Info : Digital Theater Systems
Format profile : MA / Core
Muxing mode : Stream extension
Codec ID : 134
Duration : 1h 28mn
Bit rate mode : Variable
Bit rate : 1 561 Kbps / 1 510 Kbps
Channel(s) : 6 channels
Channel positions : Front: L C R, Side: L R, LFE
Sampling rate : 48.0 KHz
Bit depth : 24 bits
Compression mode : Lossless / Lossy
Language : Russian

Audio #3
ID : 4354 (0x1102)
Menu ID : 1 (0x1)
Format : AC-3
Format/Info : Audio Coding 3
Mode extension : CM (complete main)
Format settings, Endianness : Big
Codec ID : 129
Duration : 1h 28mn
Bit rate mode : Constant
Bit rate : 448 Kbps
Channel(s) : 6 channels
Channel positions : Front: L C R, Side: L R, LFE
Sampling rate : 48.0 KHz
Bit depth : 16 bits
Compression mode : Lossy
Stream size : 285 MiB (1%)
Language : Russian

Audio #4
ID : 4355 (0x1103)
Menu ID : 1 (0x1)
Format : AC-3
Format/Info : Audio Coding 3
Mode extension : CM (complete main)
Format settings, Endianness : Big
Codec ID : 129
Duration : 1h 28mn
Bit rate mode : Constant
Bit rate : 448 Kbps
Channel(s) : 6 channels
Channel positions : Front: L C R, Side: L R, LFE
Sampling rate : 48.0 KHz
Bit depth : 16 bits
Compression mode : Lossy
Stream size : 285 MiB (1%)
Language : Russian

Text #1
ID : 4608 (0x1200)
Menu ID : 1 (0x1)
Format : PGS
Codec ID : 144
Language : English

Text #2
ID : 4609 (0x1201)
Menu ID : 1 (0x1)
Format : PGS
Codec ID : 144
Language : Russian
pb.wtf



Скачать Чистильщик через торрент http://i1.imageban.ru/out/2014/02/10/f522dd763c3b8a6dc0d5b97843d76226.png Скачать фильм Чистильщик через торрент бесплантно в хорошем качестве Описание: Главный герой картины работает чистильщиком — он убирает... места преступлений. Однажды случилось так, что «чистильщик» убрал ... 10 10 6
Info! Золотая раздача, скачанное не засчитывается.
Торрент: Зарегистрирован [2014-02-10 13:07] · скачан: 10 раз
Статус: √ проверено
Размер: 20.96 GB
Как cкачать? Как скачать Чистильщик через торрент | qTorrent

% Раздел Тема Автор DL S | L
Фильмы [HD 720p, 1080p] (Хороший звук DUB, MVO) [ 5.74 GB ] Чистильщик / Cleaner [2007 BDRip 720p от _denis_100 / NNNB] DUB MVO 2xAVO _denis_100 Скачать
1 | 0
Фильмы [HD 720p, 1080p] (Хороший звук DUB, MVO) [ 13.2 GB ] Чистильщик / Cleaner [2007 BDRip 1080p by msltel] DUB MVO AVO msltel Скачать
1 | 0
Фильмы [HD 720p, 1080p] (Хороший звук DUB, MVO) [ 11.54 GB ] Чистильщик / Cleaner [2007 BDRip 1080p от _denis_100 / NNNB] DUB MVO 2xAVO _denis_100 Скачать
1 | 0
Фильмы [HD 720p, 1080p] (Хороший звук DUB, MVO) [ 4.8 GB ] Чистильщик / Cleaner [2007 BDRip 720p by msltel] DUB MVO AVO msltel Скачать
1 | 0
Зарубежные сериалы [ 1.52 GB ] Чистильщики / Cleaners / Сезон: 2 / Серии 1-6 [2014-2015 WEBRip]MVO Assasinca Скачать
1 | 0
Зарубежные сериалы [ 1.5 GB ] Чистильщики / Cleaners / Cезон: 1 / Серии: 1-6 [2013 WEBRip] MVO Flux-Team lug30 Скачать
1 | 0
Зарубежные сериалы [ 4.99 GB ] Чистильщик / The Cleaner / сезон 1 [2008 DVDRip] MVO + Original Assasinca Скачать
1 | 0

28-11-2019 20:33  

Отключить всю рекламу на сайте

    Дорогой пользователь! Огромная просьба, поблагодарите релизера, оцените раздачу и оставьте свои комментарий, если Вы скачали Чистильщик через торрент бесплатно! Внесите свою лепту в развитие PiratBit!
    Комментировать посты могут только пользователи прошедшие не сложную регистрацию
    Показать сообщения:    

    Чистильщик через торрент
    Скачать бесплатно Чистильщик
    Чистильщик скачать торрент
    Чистильщик смотреть онлайн
    Cкачать фильм Чистильщик бесплатно
    Чистильщик скачать торрент в хорошем качестве
    Чистильщик смотреть онлайн бесплатно в хорошем качестве


    Вы не можете начинать темы
    Вы не можете отвечать на сообщения
    Вы не можете редактировать свои сообщения
    Вы не можете удалять свои сообщения
    Вы не можете голосовать в опросах
    Вы не можете прикреплять файлы к сообщениям
    Вы можете скачивать файлы