новый адрес
Мега распродажа FORZA HORIZON 4 ULTIMATE+ВСЕ DLC+ОНЛАЙН всего за 499р. 349 руб. (супер цена). Внимание количество ограничено!!!

iTunes

1+1

iTunes

мы

iTunes

1

iTunes

Чернобыль

iTunes

Ральф против интернета

Лицензия

ПШазам

Лицензия

Игра престолов

Лицензия

30
pack

ВАЖНО

!!Акция!!

Alien_RageХит недели

RePack

Resident Evil 21

ИГРА 18+

pack

RePack

Metro:Exodus

!!Акция!!

Alien_Rage

RePack

fifa19

RePack

Assassins Creed: Odyssey

RePack

NEED FOR SPEED™ PAYBACK

3 сезон

9 сезон

Бесстыжие 9 сезон

Все сериалы

все сериалы на PB.wtf

RePack

FAR CRY 5
Ребята, катастрофически не хватает 1900р. для оплаты серверов за Октябрь (всвязи с блокировками трафик упал в 3 раза), 1-2р., выручайте.
  

Королева бензоколонки (Алексей Мишурин, Николай Литус) [1962 г., Комедия, HDTVRip-AVC] Реставрация pb.wtf

Королева бензоколонки через торрент pb.wtf

Размер: 1.37 GB | Добавлен: 5 лет 9 мес. назад | Торрент скачан:409 раз
Скачать  

10-02-2014 13:53 Королева бензоколонки Скачать торрент  

Информация о фильме:
Название: Королева бензоколонки

Год выпуска: 1962
Страна: СССР
Жанр: комедия

Режиссёр: Николай Литус, Алексей Мишурин
В ролях: Надежда Румянцева, Андрей Сова, Алексей Кожевников, Нонна Копержинская, Юрий Белов, Владимир Белокуров, Сергей Блинников, Виктор Мягкий, Евгения Опалова, Виктор Халатов

Продолжительность: 01:12:47
Перевод: Не требуется
Субтитры: Нет

Описание:
Мечта очаровательной девушки Людмилы Добрыйвечер — танцевать в балете на льду. Но… она не проходит по конкурсу, и ей приходится искать работу. После многих забавных приключений, она устраивается заправщицей на бензоколонку. Однако приключения на этом не заканчиваются…


Доп. информация: Реставрация от Первого канала

Релиз от: R.G.RealMT

Файл:
Качество: HDTVRip-AVC
Формат: MP4
Видео кодек: AVC
Аудио кодек: AAC
Видео: 2500 kbps, 800x600, 25 fps
Аудио: 192 kbps, 2 ch, 48 khz

Скиншоты:
Общее
Полное имя : D:Фильмы800Королева бензоколонки [R.G.RealMT].mp4
Формат : MPEG-4
Профиль формата : Base Media
Идентификатор кодека : isom
Размер файла : 1,37 Гбайт
Продолжительность : 1 ч. 12 м.
Режим общего битрейта : Переменный
Общий поток : 2696 Кбит/сек
Дата кодирования : UTC 2014-02-09 21:48:15
Дата пометки : UTC 2014-02-09 21:48:15

Видео
Идентификатор : 1
Формат : AVC
Формат/Информация : Advanced Video Codec
Профиль формата : High@L3.1
Параметр CABAC формата : Да
Параметр ReFrames формата : 8 кадров
Идентификатор кодека : avc1
Идентификатор кодека/Информация : Advanced Video Coding
Продолжительность : 1 ч. 12 м.
Битрейт : 2500 Кбит/сек
Максимальный битрейт : 9806 Кбит/сек
Ширина : 800 пикселей
Высота : 600 пикселей
Соотношение сторон : 4:3
Режим частоты кадров : Постоянный
Частота кадров : 25,000 кадров/сек
Цветовое пространство : YUV
Субдискретизация насыщенности : 4:2:0
Битовая глубина : 8 бит
Тип развёртки : Прогрессивная
Бит/(Пиксели*Кадры) : 0.208
Размер потока : 1,27 Гбайт (93%)
Библиотека кодирования : x264 core 125 r2208 d9d2288
Настройки программы : cabac=1 / ref=8 / deblock=1:-1:-1 / analyse=0x3:0x133 / me=umh / subme=7 / psy=1 / psy_rd=1.00:0.10 / mixed_ref=1 / me_range=16 / chroma_me=1 / trellis=2 / 8x8dct=1 / cqm=0 / deadzone=21,11 / fast_pskip=0 / chroma_qp_offset=-3 / threads=6 / lookahead_threads=1 / sliced_threads=0 / nr=0 / decimate=1 / interlaced=0 / bluray_compat=0 / constrained_intra=0 / bframes=3 / b_pyramid=2 / b_adapt=2 / b_bias=0 / direct=3 / weightb=1 / open_gop=0 / weightp=2 / keyint=250 / keyint_min=25 / scenecut=40 / intra_refresh=0 / rc_lookahead=50 / rc=2pass / mbtree=1 / bitrate=2500 / ratetol=1.0 / qcomp=0.60 / qpmin=0 / qpmax=69 / qpstep=4 / cplxblur=20.0 / qblur=0.5 / ip_ratio=1.40 / aq=1:1.00
Дата кодирования : UTC 2014-02-09 21:48:15
Дата пометки : UTC 2014-02-09 21:51:02

Аудио
Идентификатор : 2
Формат : AAC
Формат/Информация : Advanced Audio Codec
Профиль формата : LC
Идентификатор кодека : 40
Продолжительность : 1 ч. 12 м.
Вид битрейта : Переменный
Битрейт : 192 Кбит/сек
Максимальный битрейт : 259 Кбит/сек
Каналы : 2 канала
Расположение каналов : Front: L R
Частота : 48,0 КГц
Метод сжатия : С потерями
Размер потока : 99,9 Мбайт (7%)
Дата кодирования : UTC 2014-02-09 21:51:00
Дата пометки : UTC 2014-02-09 21:51:02
pb.wtf



Скачать Королева бензоколонки через торрент http://i33.fastpic.ru/big/2014/0210/45/ee0a1cf29156cef345aa6697a1dbcd45.gif Скачать фильм Королева бензоколонки через торрент бесплантно в хорошем качестве Описание: Мечта очаровательной девушки Людмилы Добрыйвечер — танцевать в балете на льду. Но… она не проходит по конкурсу, и ей приходится ... 9.9 10 15
Info! Золотая раздача, скачанное не засчитывается.
Торрент: Зарегистрирован [2014-02-10 13:53] · скачан: 409 раз
Статус: √ проверено
Размер: 1.37 GB
Как cкачать? Как скачать Королева бензоколонки через торрент | qTorrent



Последний раз редактировалось: Azazel (2014-02-10 14:32), всего редактировалось 3 раз(а)


>> Регистрируемся здесь <<






Отзывы и комментарии о схеме читаем и пишем здесь: ---> Отзывы и комментарии о схеме

Новые благодарочки в телеграм довольных пользователей:
скриншот   скриншот   скриншот   скриншот   скриншот

10-02-2014 14:03 Королева бензоколонки Скачать торрент  

Azazel
Добавьте пожалуйста отчет MediaInfo
http://pb.wtf/topic/127047/
На все файлы MKV MI обязательно добавлять, на AVI по желанию или по требованию модератора.pb.wtf



10-02-2014 14:08 Королева бензоколонки Скачать торрент  

Raven
а МП4? я в основном МП4pb.wtf



10-02-2014 14:12 Королева бензоколонки Скачать торрент  

Постер, извиняюсь, чуть позже заменюpb.wtf



10-02-2014 14:14 Королева бензоколонки Скачать торрент  

посмотрим вроде чёрнобелый был ?pb.wtf



10-02-2014 14:16 Королева бензоколонки Скачать торрент  

не, цветнойpb.wtf



10-02-2014 14:34 Королева бензоколонки Скачать торрент  

поменял постер + анированныйpb.wtf



10-02-2014 14:36 Королева бензоколонки Скачать торрент  

Azazel писал(а):

а МП4? я в основном МП4

Короче все что выше AVI на него МИ обязательно.pb.wtf



10-02-2014 14:48 Королева бензоколонки Скачать торрент  

Raven
окpb.wtf



    Дорогой пользователь! Огромная просьба, поблагодарите релизера, оцените раздачу и оставьте свои комментарий, если Вы скачали Королева бензоколонки через торрент бесплатно! Внесите свою лепту в развитие PiratBit!
    Комментировать посты могут только пользователи прошедшие не сложную регистрацию
    Показать сообщения:    

    Королева бензоколонки через торрент
    Скачать бесплатно Королева бензоколонки
    Королева бензоколонки скачать торрент
    Королева бензоколонки смотреть онлайн
    Cкачать фильм Королева бензоколонки бесплатно
    Королева бензоколонки скачать торрент в хорошем качестве
    Королева бензоколонки смотреть онлайн бесплатно в хорошем качестве


    Вы не можете начинать темы
    Вы не можете отвечать на сообщения
    Вы не можете редактировать свои сообщения
    Вы не можете удалять свои сообщения
    Вы не можете голосовать в опросах
    Вы не можете прикреплять файлы к сообщениям
    Вы можете скачивать файлы