Ссылка на приватное зеркало нашего сайта всего за 1$. Внимание количество ограничено!!!

2 сезон

iTunes

1 сезон

1

2 сезон

2 сезон

iTunes

1 сезон

RePack

30

Новинка

ВАЖНО

ИГРА 18+

pack

RePack

MK11
pack

Забери бонус

RePack

jed

!!Акция!!

Alien_Rage

RePack

fifa19

RePack

Assassins Creed: Odyssey

RePack

NEED FOR SPEED™ PAYBACK

4 сезон

9 сезон

Бесстыжие 9 сезон

Все сериалы

все сериалы на PB.wtf

RePack

FAR CRY 5
  

Матильда / Matilda (Дэнни ДеВито) [1996 г., Фэнтези, комедия, Blu-Ray Remux (1080p), DUB, MVO, AVO, Original, SUB] pb.wtf

Матильда через торрент pb.wtf

Размер: 19.31 GB | Добавлен: 6 лет 9 мес. назад | Торрент скачан:21 раз
Скачать  

10-02-2014 20:19 Матильда Скачать торрент  

Матильда / Matilda

Год выпуска: 1996
Страна: США
Выпущено: Jersey Films, Tri-Star Pictures
Жанр: Фэнтези, комедия
Продолжительность: 01:38:08
Перевод: Дубляж + Многоголосый + Авторский
Субтитры: Русские, английские (Full (Blu-Ray, DVD)), (SDH (Blu-Ray, iTunes, COLORED)), немецкие

Режиссер: Дэнни ДеВито
Продюссер: Мартин Брегман, Лисси Даль, Дэнни ДеВито
Сценарий: Николас Казан, Робин Суикорд, Роальд Даль
Бюджет: $36 000 000
Премьера в мире: 28 июля 1996

IMDB 6.80 (63 248)


В ролях: Матильда - очень необычная девочка. Ну посудите сами - умножать в голове огромные цифры, двигать взглядом предметы, и делать еще много чего сверхъестественного - это что, по-вашему, нормально? Но ее родители равнодушны к ней - их не только не поражают способности Матильды, им даже не интересно как живет их дочь. Все, чего хотят «сердобольные» мама с папой - избавиться от нее. Так они и поступают - отправляют девочку в интернат. Вот там-то Матильда и начинает давать волю своим поразительным талантам. А умеет она выкидывать такие номера, что поверьте, мало не покажется.

Описание: Матильда — очень необычная девочка. Ну посудите сами — умножать в голове огромные цифры, двигать взглядом предметы, и делать еще много чего сверхъестественного — это что, по-вашему, нормально? Но ее родители равнодушны к ней — их не только не поражают способности Матильды, им даже не интересно как живет их дочь...

Номинация:
Сатурн, 1997 год
Номинации (1):
Лучший молодой актер/актриса (Мара Уилсон)


Качество: Blu-Ray Remux (1080p)
Формат: MKV
Видео кодек: AVC
Аудио кодек: AC3 / DTS-HD MA
Видео: MPEG-4 AVC, 25.0 Mбит/с, 1920x1080, 23.976 кадр/c, (Бит/Пиксели): 0.503
Аудио#1: Russian: AC3, 6 ch, 384 Кбит/с, 48,0 КГц - дублированный (R5)
Аудио#2: Russian: AC3, 2 ch, 192 Кбит/с, 48,0 КГц - профессиональный многоголосый (R5)
Аудио#3: Russian: AC3, 2 ch, 256 Кбит/с, 48,0 КГц - авторский одноголосый (Л. Володарский)
Аудио#4: Russian: AC3, 2 ch, 192 Кбит/с, 48,0 КГц - авторский одноголосый (С. Кузнецов)
Аудио#5: English: DTS-HD MA, 6 ch, 2251 Кбит/с, 48.0 KHz
General
Unique ID : 205753530412059824985065437404177899289 (0x9ACAB0440D6BA79C86461D188CD01F19)
Complete name : /home/sb753/files/Matilda.1996.BDRemux.1080p.mkv
Format : Matroska
Format version : Version 2
File size : 19.3 GiB
Duration : 1h 38mn
Overall bit rate mode : Variable
Overall bit rate : 28.2 Mbps
Movie name : Arifis
Encoded date : UTC 2014-02-02 19:07:36
Writing application : mkvmerge v5.2.1 ('A Far Off Place') built on Jan 2 2012 23:21:10
Writing library : libebml v1.2.3 + libmatroska v1.3.0

Video
ID : 1
Format : AVC
Format/Info : Advanced Video Codec
Format profile : High@L4.1
Format settings, CABAC : Yes
Format settings, ReFrames : 2 frames
Format settings, GOP : M=1, N=10
Codec ID : V_MPEG4/ISO/AVC
Duration : 1h 38mn
Bit rate mode : Variable
Bit rate : 25.0 Mbps
Width : 1 920 pixels
Height : 1 080 pixels
Display aspect ratio : 16:9
Frame rate : 23.976 fps
Color space : YUV
Chroma subsampling : 4:2:0
Bit depth : 8 bits
Scan type : Progressive
Bits/(Pixel*Frame) : 0.503
Stream size : 17.2 GiB (89%)
Title : Matilda (Arifis)
Default : Yes
Forced : No

Audio #1
ID : 2
Format : AC-3
Format/Info : Audio Coding 3
Mode extension : CM (complete main)
Format settings, Endianness : Big
Codec ID : A_AC3
Duration : 1h 38mn
Bit rate mode : Constant
Bit rate : 384 Kbps
Channel(s) : 6 channels
Channel positions : Front: L C R, Side: L R, LFE
Sampling rate : 48.0 KHz
Bit depth : 16 bits
Compression mode : Lossy
Stream size : 270 MiB (1%)
Title : AC3 5.1 @ 384 kbps - Dub, R5
Language : Russian
Default : Yes
Forced : No

Audio #2
ID : 3
Format : AC-3
Format/Info : Audio Coding 3
Mode extension : CM (complete main)
Format settings, Endianness : Big
Codec ID : A_AC3
Duration : 1h 38mn
Bit rate mode : Constant
Bit rate : 192 Kbps
Channel(s) : 2 channels
Channel positions : Front: L R
Sampling rate : 48.0 KHz
Bit depth : 16 bits
Compression mode : Lossy
Stream size : 135 MiB (1%)
Title : ??3 2.0 @ 192 kbps - MVO, R5
Language : Russian
Default : No
Forced : No

Audio #3
ID : 4
Format : AC-3
Format/Info : Audio Coding 3
Mode extension : CM (complete main)
Format settings, Endianness : Big
Codec ID : A_AC3
Duration : 1h 38mn
Bit rate mode : Constant
Bit rate : 256 Kbps
Channel(s) : 2 channels
Channel positions : Front: L R
Sampling rate : 48.0 KHz
Bit depth : 16 bits
Compression mode : Lossy
Stream size : 180 MiB (1%)
Title : ??3 2.0 @ 256 kbps - AVO, ?. ???????????
Language : Russian
Default : No
Forced : No

Audio #4
ID : 5
Format : AC-3
Format/Info : Audio Coding 3
Mode extension : CM (complete main)
Format settings, Endianness : Big
Codec ID : A_AC3
Duration : 1h 38mn
Bit rate mode : Constant
Bit rate : 192 Kbps
Channel(s) : 2 channels
Channel positions : Front: L R
Sampling rate : 48.0 KHz
Bit depth : 16 bits
Compression mode : Lossy
Stream size : 135 MiB (1%)
Title : ??3 2.0 @ 192 kbps - AVO, ?. ????????
Language : Russian
Default : No
Forced : No

Audio #5
ID : 6
Format : DTS
Format/Info : Digital Theater Systems
Format profile : MA / Core
Codec ID : A_DTS
Duration : 1h 38mn
Bit rate mode : Variable
Bit rate : 1 561 Kbps / 1 510 Kbps
Channel(s) : 6 channels
Channel positions : Front: L C R, Side: L R, LFE
Sampling rate : 48.0 KHz
Bit depth : 16 bits
Compression mode : Lossless / Lossy
Title : DTS-HD MA 5.1 Original @ 2251 kbps
Language : English
Default : No
Forced : No

Text #1
ID : 7
Format : UTF-8
Codec ID : S_TEXT/UTF8
Codec ID/Info : UTF-8 Plain Text
Title : Full Rus
Language : Russian
Default : No
Forced : No

Text #2
ID : 8
Format : UTF-8
Codec ID : S_TEXT/UTF8
Codec ID/Info : UTF-8 Plain Text
Title : Full Eng [Blu-Ray]
Language : English
Default : No
Forced : No

Text #3
ID : 9
Format : UTF-8
Codec ID : S_TEXT/UTF8
Codec ID/Info : UTF-8 Plain Text
Title : Full Eng [DVD]
Language : English
Default : No
Forced : No

Text #4
ID : 10
Format : UTF-8
Codec ID : S_TEXT/UTF8
Codec ID/Info : UTF-8 Plain Text
Title : SDH Eng [Blu-Ray]
Language : English
Default : No
Forced : No

Text #5
ID : 11
Format : UTF-8
Codec ID : S_TEXT/UTF8
Codec ID/Info : UTF-8 Plain Text
Title : SDH Eng [iTunes]
Language : English
Default : No
Forced : No

Text #6
ID : 12
Format : UTF-8
Codec ID : S_TEXT/UTF8
Codec ID/Info : UTF-8 Plain Text
Title : SDH Colored Eng
Language : English
Default : No
Forced : No

Text #7
ID : 13
Format : UTF-8
Codec ID : S_TEXT/UTF8
Codec ID/Info : UTF-8 Plain Text
Title : Full Ger
Language : German
Default : No
Forced : No

Menu
00:00:00.000 : :START
00:05:02.927 : :IN SEARCH OF A BOOK
00:10:52.151 : :HAIR TONIC
00:17:23.250 : :CAFE LE RITZ
00:22:59.086 : :CRUNCHEM HALL
00:27:49.542 : :MISS HONEY
00:34:07.336 : :MISS HONEY PAYS A VISIT
00:37:13.439 : :BRUCE BOGTROTTER
00:45:47.453 : :THE NEWT
00:53:34.628 : :MISS HONEY'S STORY
01:01:52.417 : :THE CHASE
01:09:39.258 : :"LITTLE BITTY PRETTY ONE"
01:13:06.256 : :LISSY DOLL
01:19:15.500 : :NO MORE MISS NICE GIRL
01:23:35.844 : :HAUNTED CHALKBOARD
01:28:27.635 : :ADOPTING MATILDA
pb.wtf



Скачать Матильда через торрент http://i3.imageban.ru/out/2014/02/10/4e560b36812eb512d77bd7b40fcce822.png Скачать фильм Матильда через торрент бесплантно в хорошем качестве Описание: Матильда — очень необычная девочка. Ну посудите сами — умножать в голове огромные цифры, двигать взглядом предметы, и делать еще ... 10 10 2
Info! Золотая раздача, скачанное не засчитывается.
Торрент: Зарегистрирован [2014-02-10 20:19] · скачан: 21 раз
Статус: √ проверено
Размер: 19.31 GB
Как cкачать? Как скачать Матильда через торрент | qTorrent

28-11-2019 20:33  

Отключить всю рекламу на сайте

    Дорогой пользователь! Огромная просьба, поблагодарите релизера, оцените раздачу и оставьте свои комментарий, если Вы скачали Матильда через торрент бесплатно! Внесите свою лепту в развитие PiratBit!
    Комментировать посты могут только пользователи прошедшие не сложную регистрацию
    Показать сообщения:    

    Матильда через торрент
    Скачать бесплатно Матильда
    Матильда скачать торрент
    Матильда смотреть онлайн
    Cкачать фильм Матильда бесплатно
    Матильда скачать торрент в хорошем качестве
    Матильда смотреть онлайн бесплатно в хорошем качестве


    Вы не можете начинать темы
    Вы не можете отвечать на сообщения
    Вы не можете редактировать свои сообщения
    Вы не можете удалять свои сообщения
    Вы не можете голосовать в опросах
    Вы не можете прикреплять файлы к сообщениям
    Вы можете скачивать файлы