Ссылка на приватное зеркало нашего сайта всего за 1$. Внимание количество ограничено!!!

2 сезон

iTunes

1 сезон

1

2 сезон

2 сезон

iTunes

1 сезон

RePack

30

Ultimate

ВАЖНО

ИГРА 18+

pack

RePack

MK11
pack

Забери бонус

RePack

jed

!!Акция!!

Alien_Rage

RePack

fifa19

RePack

Assassins Creed: Odyssey

RePack

NEED FOR SPEED™ PAYBACK

4 сезон

9 сезон

Бесстыжие 9 сезон

Все сериалы

все сериалы на PB.wtf

RePack

FAR CRY 5
  

Пустоши / Badlands (Терренс Малик) [1973 г., Драма, криминал, Blu-Ray Remux (1080р), DVO, AVO, VO, Original] pb.wtf

Пустоши через торрент pb.wtf

Размер: 23.94 GB | Добавлен: 6 лет 9 мес. назад | Торрент скачан:7 раз
Скачать  

10-02-2014 20:49 Пустоши Скачать торрент  

Пустоши / Badlands

Год выпуска: 1973
Страна: США
Выпущено: Badlands Company, Jill Jakes Production, Pressman-Williams
Жанр: Драма, криминал
Продолжительность: 01:33:58
Перевод: Профессиональный двухголосый + Авторский + Любительский одноголосый
Субтитры: Русские, английские

Режиссер: Терренс Малик
Продюссер: Джилл Джейкс, Терренс Малик, Эдвард Р. Прессман
Сценарий: Терренс Малик
Премьера в мире: 13 октября 1973

IMDB 7.90 (34 932)


В ролях: Мартин Шин, Сисси Спэйсек, Уоррен Оутс, Рамон Биери, Алан Винт, Гэри Литтлджон, Джон Картер, Брайан Монтгомери, Ховард Рэгсдэйл, Джон Уомэк мл., Дона Болдуин, Бен Браво, Терренс Малик

Описание: В 1959 году юноша по имени Кит и его несовершеннолетняя подружка Холли пускаются в бега после убийства отца Холли, запрещавшего им встречаться.Направляясь к пустошам Монтаны, парочка совершает на своем пути череду хладнокровных убийств.

Качество: Blu-Ray Remux (1080р)
Формат: MKV
Видео кодек: AVC
Аудио кодек: AC3 / DTS-HD MA
Видео: MPEG-4 AVC, 34.4 Mбит/с, 1920x1080, 23.976 кадр/с, (Bits/Pixel): 0.692
Аудио#1: Russian: AC3, 2 ch, 192 Кбит/с, 48.0 KHz - профессиональный двухголосый
Аудио#2: Russian: AC3, 2 ch, 192 Кбит/с, 48.0 KHz - авторский одноголосый (Л.Володарский)
Аудио#3: Russian: AC3, 2 ch, 192 Кбит/с, 48.0 KHz - любительский одноголосый (П.Чайников)
Аудио#4: English: DTS-HD MA, 1 ch, 1077 Кбит/с, 48.0 KHz
General
Unique ID : 172199506659516536748747027103675711742 (0x818C6B2B3B8C0EA98001B4B2D35E00FE)
Complete name : /home/sb753/files/Badlands.1973.1080p.Remux.mkv
Format : Matroska
Format version : Version 2
File size : 23.9 GiB
Duration : 1h 33mn
Overall bit rate mode : Variable
Overall bit rate : 36.5 Mbps
Movie name : Badlands / ??????? (1973) ? RuTracker
Encoded date : UTC 2014-01-12 12:55:52
Writing application : mkvmerge v6.1.0 ('Old Devil') built on Mar 2 2013 14:32:37
Writing library : libebml v1.3.0 + libmatroska v1.4.0
Attachment : Yes

Video
ID : 1
Format : AVC
Format/Info : Advanced Video Codec
Format profile : High@L4.1
Format settings, CABAC : Yes
Format settings, ReFrames : 4 frames
Codec ID : V_MPEG4/ISO/AVC
Duration : 1h 33mn
Bit rate mode : Variable
Bit rate : 34.4 Mbps
Maximum bit rate : 37.0 Mbps
Width : 1 920 pixels
Height : 1 080 pixels
Display aspect ratio : 16:9
Frame rate : 23.976 fps
Color space : YUV
Chroma subsampling : 4:2:0
Bit depth : 8 bits
Scan type : Progressive
Bits/(Pixel*Frame) : 0.692
Stream size : 22.6 GiB (94%)
Title : Badlands 1973 Criterion Collection 1080p Blu-ray AVC LPCM 1.0-ESiR
Language : English
Default : Yes
Forced : No

Audio #1
ID : 2
Format : AC-3
Format/Info : Audio Coding 3
Mode extension : CM (complete main)
Format settings, Endianness : Big
Codec ID : A_AC3
Duration : 1h 33mn
Bit rate mode : Constant
Bit rate : 192 Kbps
Channel(s) : 2 channels
Channel positions : Front: L R
Sampling rate : 48.0 KHz
Bit depth : 16 bits
Compression mode : Lossy
Stream size : 129 MiB (1%)
Title : DVO
Language : Russian
Default : Yes
Forced : No

Audio #2
ID : 3
Format : AC-3
Format/Info : Audio Coding 3
Mode extension : CM (complete main)
Format settings, Endianness : Big
Codec ID : A_AC3
Duration : 1h 33mn
Bit rate mode : Constant
Bit rate : 192 Kbps
Channel(s) : 2 channels
Channel positions : Front: L R
Sampling rate : 48.0 KHz
Bit depth : 16 bits
Compression mode : Lossy
Stream size : 129 MiB (1%)
Title : AVO ? ?.???????????
Language : Russian
Default : No
Forced : No

Audio #3
ID : 4
Format : AC-3
Format/Info : Audio Coding 3
Mode extension : CM (complete main)
Format settings, Endianness : Big
Codec ID : A_AC3
Duration : 1h 33mn
Bit rate mode : Constant
Bit rate : 192 Kbps
Channel(s) : 2 channels
Channel positions : Front: L R
Sampling rate : 48.0 KHz
Bit depth : 16 bits
Compression mode : Lossy
Stream size : 129 MiB (1%)
Title : VO ? ?.????????
Language : Russian
Default : No
Forced : No

Audio #4
ID : 5
Format : DTS
Format/Info : Digital Theater Systems
Format profile : MA / Core
Codec ID : A_DTS
Duration : 1h 33mn
Bit rate mode : Variable
Bit rate : 800 Kbps / 754 Kbps
Channel(s) : 1 channel
Channel positions : Front: C
Sampling rate : 48.0 KHz
Bit depth : 24 bits
Compression mode : Lossless / Lossy
Title : Original
Language : English
Default : No
Forced : No

Text #1
ID : 6
Format : UTF-8
Codec ID : S_TEXT/UTF8
Codec ID/Info : UTF-8 Plain Text
Title : ?.?????????
Language : Russian
Default : No
Forced : No

Text #2
ID : 7
Format : UTF-8
Codec ID : S_TEXT/UTF8
Codec ID/Info : UTF-8 Plain Text
Language : English
Default : No
Forced : No

Text #3
ID : 8
Format : UTF-8
Codec ID : S_TEXT/UTF8
Codec ID/Info : UTF-8 Plain Text
Title : SDH
Language : English
Default : No
Forced : No

Menu
00:00:00.000 : en:01. Kit
00:07:20.607 : en:02. "Days Of Happiness"
00:15:23.297 : en:03. Holly's Punishment
00:19:07.980 : en:04. Murder
00:23:27.156 : en:05. Big Decision
00:31:00.859 : en:06. A New Life
00:41:10.760 : en:07. Cato
00:46:03.970 : en:08. "Shoot All Witnesses"
00:54:19.423 : en:09. The Rich Man
01:01:30.061 : en:10. "Our Headlong Way"
01:09:43.221 : en:11. The End Nears
01:14:18.454 : en:12. Caught
01:25:22.242 : en:13. Sentenced
pb.wtf



Скачать Пустоши через торрент http://i4.imageban.ru/out/2014/02/11/0bc6686f6c7a93f52b4d5c58bac47e1e.png Скачать фильм Пустоши через торрент бесплантно в хорошем качестве Описание: В 1959 году юноша по имени Кит и его несовершеннолетняя подружка Холли пускаются в бега после убийства отца Холли, запрещавшего ... 10 10 3
Info! Золотая раздача, скачанное не засчитывается.
Торрент: Зарегистрирован [2014-02-10 20:49] · скачан: 7 раз
Статус: √ проверено
Размер: 23.94 GB
Как cкачать? Как скачать Пустоши через торрент | qTorrent

28-11-2019 20:33  

Отключить всю рекламу на сайте

    Дорогой пользователь! Огромная просьба, поблагодарите релизера, оцените раздачу и оставьте свои комментарий, если Вы скачали Пустоши через торрент бесплатно! Внесите свою лепту в развитие PiratBit!
    Комментировать посты могут только пользователи прошедшие не сложную регистрацию
    Показать сообщения:    

    Пустоши через торрент
    Скачать бесплатно Пустоши
    Пустоши скачать торрент
    Пустоши смотреть онлайн
    Cкачать фильм Пустоши бесплатно
    Пустоши скачать торрент в хорошем качестве
    Пустоши смотреть онлайн бесплатно в хорошем качестве


    Вы не можете начинать темы
    Вы не можете отвечать на сообщения
    Вы не можете редактировать свои сообщения
    Вы не можете удалять свои сообщения
    Вы не можете голосовать в опросах
    Вы не можете прикреплять файлы к сообщениям
    Вы можете скачивать файлы