Ссылка на приватное зеркало нашего сайта всего за 1$. Внимание количество ограничено!!!

2 сезон

iTunes

1 сезон

1

iTunes

iTunes

iTunes

1 сезон

RePack

30

ИГРА 18+

pack

ВАЖНО

!!Акция!!

Alien_RageХит недели

RePack

MK11
pack

Забери бонус

RePack

jed

!!Акция!!

Alien_Rage

RePack

fifa19

RePack

Assassins Creed: Odyssey

RePack

NEED FOR SPEED™ PAYBACK

4 сезон

9 сезон

Бесстыжие 9 сезон

Все сериалы

все сериалы на PB.wtf

RePack

FAR CRY 5
  

Цветы на чердаке / Flowers in the Attic (Дебора Чоу / Deborah Chow) [ 2014 , Канада, США , триллер, драма, детектив , HDRip ]VO pb.wtf

Цветы на чердаке через торрент pb.wtf

Размер: 1.36 GB | Добавлен: 6 лет 8 мес. назад | Торрент скачан:227 раз
Скачать  

12-02-2014 05:52 Цветы на чердаке Скачать торрент  

Цветы на чердаке / Flowers in the Attic
Год выпуска: 2014
Страна: Канада, США
Жанр: триллер, драма, детектив
Продолжительность: 01:29:59
Перевод: Любительский (одноголосый)
Субтитры: Нет

Режиссер: Дебора Чоу / Deborah Chow
Сценарий: Кайла Элперт / Kayla Alpert, Вирджиния С. Эндрюс / Virginia C. Andrews
Продюсер: Меридет Финн / Merideth Finn, Чарльз В. Фрайс / Charles W. Fries, Дэмиен Ганчевски / Damian Ganczewski, Харви Кан / Harvey Kahn, Tanya Lopez
Оператор: Мирослав Бажак / Miroslaw Baszak
Композитор: Марио Григоров / Mario Grigorov

В ролях: Хэзер Грэм (Corrine), Эллен Бёрстин (Olivia), Кирнан Шипка (Cathy), Мэйсон Дай (Christopher), Дилан Брюс (Bart Winslow), Ава Телек (Carrie), Бо Дэниелс (Mr. Foxworth), Б.Дж. Харрисон (Sarah), Laura Jaszcz (Female Guest), Эндрю Кавадас (John), Максвелл Ковач (Cory), Джон Эммет Трэйси (Male Guest)

Мировая премьера: 18 января 2014

Описание: Когда у Корин Доллагэнгер внезапно умер любимый муж, для неё и четырёх детей настали тяжелые времена. Она осталась без гроша, без работы и не знала, что делать. Жизнь вынудила её вернуться в дом своих родителей Фоксвортов, людей богатых, но жестоких и ханжей.

Рейтинг
kinopoisk.ru: 5.600 (34)
imdb.com: 6.00 (1548)

Качество: HDRip
Формат: AVI
Видео кодек: XviD
Аудио кодек: AC3
Видео: 1899 Кбит/сек, 720*400 (16:9), в 23,976 кадра/сек, MPEG-4 Visual (XviD)
Аудио: 256 Кбит/сек, 48,0 КГц, 16 бит, 2 канала, AC-3

Общее
Кол-во : 279
Кол-во потоков такого типа : 1
Тип потока : General
Тип потока : Общее
Идентификатор типа потока : 0
Inform : AVI: 1,36 Гбайт, 1 ч. 29 м.
Кол-во видеопотоков : 1
Кол-во аудиопотоков : 1
Video_Format_List : MPEG-4 Visual
Video_Format_WithHint_List : MPEG-4 Visual (XviD)
Видеокодеки : XviD
Audio_Format_List : AC-3
Audio_Format_WithHint_List : AC-3
Аудиокодеки : AC3
Полное имя : D:ФильмыЦветы.avi
Имя папки : D:Фильмы
Имя файла : Цветы
Расширение : avi
Формат : AVI
Формат : AVI
Формат/Информация : Audio Video Interleave
Формат/Используется в : avi
Коммерческое название : AVI
Интернет-тип носителя : video/vnd.avi
Чередующаяся : Yes
Кодек : AVI
Кодек : AVI
Кодек/Информация : Audio Video Interleave
Кодек/Используется в : avi
Размер файла : 1460834304
Размер файла : 1,36 Гбайт
Размер файла : 1 Гбайт
Размер файла : 1,4 Гбайт
Размер файла : 1,36 Гбайт
Размер файла : 1,361 Гбайт
Продолжительность : 5399478
Продолжительность : 1 ч. 29 м.
Продолжительность : 1 ч. 29 м. 59 с. 478 мс.
Продолжительность : 1 ч. 29 м.
Продолжительность : 01:29:59.478
Общий поток : 2164408
Общий поток : 2164 Кбит/сек
Размер потока : 6399458
Размер потока : 6,10 Мбайт (0%)
Размер потока : 6 Мбайт
Размер потока : 6,1 Мбайт
Размер потока : 6,10 Мбайт
Размер потока : 6,103 Мбайт
Размер потока : 6,10 Мбайт (0%)
Пропорции потока : 0.00438
Дата файла : UTC 2014-02-12 03:50:16.867
Дата файла (местная) : 2014-02-12 10:50:16.867
Дата изменения файла : UTC 2014-02-12 05:33:55.940
Дата изменения файла (местная) : 2014-02-12 12:33:55.940
Программа кодирования : VirtualDubMod 1.5.10.2 (build 2540/release)
Библиотека кодирования : VirtualDubMod build 2540/release
Библиотека кодирования : VirtualDubMod build 2540/release

Видео
Кол-во : 248
Кол-во потоков такого типа : 1
Тип потока : Video
Тип потока : Видео
Идентификатор типа потока : 0
Inform : 1899 Кбит/сек, 720*400 (16:9), в 23,976 кадра/сек, MPEG-4 Visual (XviD) (Сжатый битовый поток) (Advanced Simple@L5) (BVOP2)
Идентификатор : 0
Идентификатор : 0
Формат : MPEG-4 Visual
Коммерческое название : MPEG-4 Visual
Профиль формата : Advanced Simple@L5
Настройки формата : BVOP2
Параметр BVOP формата : 2
Параметр BVOP формата : 2
Параметр QPel формата : No
Параметр QPel формата : Нет
Параметр GMC формата : 0
Параметр GMC формата : Без точки перехода
Параметр матрицы формата : Default (H.263)
Параметр матрицы формата : Default (H.263)
Интернет-тип носителя : video/MP4V-ES
Режим смешивания : Сжатый битовый поток
Идентификатор кодека : XVID
Идентификатор кодека/Подсказка : XviD
Идентификатор кодека/Ссылка : http://mediaarea.net/XVID
Кодек : XVID
Кодек : XviD
Кодек/Семейство : MPEG-4V
Кодек/Информация : XviD project
Кодек/Ссылка : http://www.xvid.org/Downloads.15.0.html
Кодек/CC : XVID
Профиль кодека : Advanced Simple@L5
Настройки кодека : BVOP / Packed Bitstream
Параметр пакетного потока данных кодека : Yes
Параметр BVOP кодека : Yes
Параметр QPel кодека : No
Параметр GMC кодека : 0
Параметр GMC кодека : Без точки перехода
Параметр матрицы кодека : Default (H.263)
Продолжительность : 5399478
Продолжительность : 1 ч. 29 м.
Продолжительность : 1 ч. 29 м. 59 с. 478 мс.
Продолжительность : 1 ч. 29 м.
Продолжительность : 01:29:59.478
Битрейт : 1898926
Битрейт : 1899 Кбит/сек
Ширина : 720
Ширина : 720 пикселей
Высота : 400
Высота : 400 пикселей
Пропорции пикселя : 1.000
Соотношение сторон : 1.800
Соотношение сторон : 16:9
Частота кадров : 23.976
Частота кадров : 23,976 кадра/сек
Счётчик кадров : 129458
Разрешение : 8
Разрешение : 8 бит
Колориметрия : 4:2:0
Цветовое пространство : YUV
Субдискретизация насыщенности : 4:2:0
Битовая глубина : 8
Битовая глубина : 8 бит
Тип развёртки : Progressive
Тип развёртки : Прогрессивная
Переплетение : PPF
Переплетение : Прогрессивная
Метод сжатия : Lossy
Метод сжатия : С потерями
Бит/(Пиксели*Кадры) : 0.275
Задержка : 0
Задержка : 00:00:00.000
Размер потока : 1281652254
Размер потока : 1,19 Гбайт (88%)
Размер потока : 1 Гбайт
Размер потока : 1,2 Гбайт
Размер потока : 1,19 Гбайт
Размер потока : 1,194 Гбайт
Размер потока : 1,19 Гбайт (88%)
Пропорции потока : 0.87734
Библиотека кодирования : XviD0064
Библиотека кодирования : XviD 64
Библиотека кодирования/Имя : XviD
Библиотека кодирования/Version : 64

Аудио
Кол-во : 244
Кол-во потоков такого типа : 1
Тип потока : Audio
Тип потока : Аудио
Идентификатор типа потока : 0
Inform : 256 Кбит/сек, 48,0 КГц, 16 бит, 2 канала, AC-3
Идентификатор : 1
Идентификатор : 1
Формат : AC-3
Формат/Информация : Audio Coding 3
Коммерческое название : AC-3
Расширение режима : CM (complete main)
Параметр Endianness формата : Big
Идентификатор кодека : 2000
Кодек : AC3
Кодек : AC3
Кодек/Семейство : AC3
Кодек/Информация : Dolby AC3
Кодек/CC : 2000
Продолжительность : 5399456
Продолжительность : 1 ч. 29 м.
Продолжительность : 1 ч. 29 м. 59 с. 456 мс.
Продолжительность : 1 ч. 29 м.
Продолжительность : 01:29:59.456
Вид битрейта : CBR
Вид битрейта : Постоянный
Битрейт : 256000
Битрейт : 256 Кбит/сек
Каналы : 2
Каналы : 2 канала
Расположение каналов : Front: L R
Расположение каналов : 2/0/0
Частота : 48000
Частота : 48,0 КГц
Количество образцов : 259173888
Разрешение : 16
Разрешение : 16 бит
Битовая глубина : 16
Битовая глубина : 16 бит
Метод сжатия : Lossy
Метод сжатия : С потерями
Задержка : 0
Задержка : 00:00:00.000
Задержка в оригинале : Stream
Задержка в оригинале : 'Сырой' поток
Задержка видео : 0
Задержка видео : 0
Размер потока : 172782592
Размер потока : 165 Мбайт (12%)
Размер потока : 165 Мбайт
Размер потока : 165 Мбайт
Размер потока : 165 Мбайт
Размер потока : 164,8 Мбайт
Размер потока : 165 Мбайт (12%)
Пропорции потока : 0.11828
Выравнивание : Split
Выравнивание : Разделение по промежуткам
Продолжительность промежутка : 1.00
Продолжительность промежутка : 42
Продолжительность промежутка : 42 мс. (1,00 видеокадр)
Время предзагрузки промежутка : 500
Время предзагрузки промежутка : 500 мс.
dsurmod : 0
dialnorm : -27
dialnorm/String : -27 dB
compr : -0.28
compr/String : -0.28 dB
bsid : 8
dialnorm_Average : -27
dialnorm_Average/String : -27 dB
dialnorm_Minimum : -27
dialnorm_Minimum/String : -27 dB
dialnorm_Maximum : -27
dialnorm_Maximum/String : -27 dB
dialnorm_Count : 405
compr_Average : 2.31
compr_Average/String : 2.31 dB
compr_Minimum : -0.28
compr_Minimum/String : -0.28 dB
compr_Maximum : 5.74
compr_Maximum/String : 5.74 dB
compr_Count : 405
dynrng_Average : 10.63
dynrng_Average/String : 10.63 dB
dynrng_Minimum : -23.30
dynrng_Minimum/String : -23.30 dB
dynrng_Maximum : 23.66
dynrng_Maximum/String : 23.66 dB
dynrng_Count : 405


скриншот  скриншот  скриншот  скриншот  скриншот  скриншот  скриншот  скриншот  скриншот  скриншот  скриншот  



pb.wtf



Скачать Цветы на чердаке через торрент http://trueimages.ru/img/89/28/2b1faf25.jpg Скачать фильм Цветы на чердаке через торрент бесплантно в хорошем качестве Описание: Когда у Корин Доллагэнгер внезапно умер любимый муж, для неё и четырёх детей настали тяжелые времена. Она осталась без гроша, без ... 8.5 10 6
Info! Золотая раздача, скачанное не засчитывается.
Торрент: Зарегистрирован [2014-02-12 05:52] · скачан: 227 раз
Статус: T временная
Размер: 1.36 GB
Как cкачать? Как скачать Цветы на чердаке через торрент | qTorrent

% Раздел Тема Автор DL S | L
Фильмы [HD 720p, 1080p] (Хороший звук DUB, MVO) [ 5.3 GB ] Цветы на чердаке / Flowers in the Attic [1987 BDRip 720p] MVO VO msltel Скачать
1 | 0
Фильмы [HD 720p, 1080p] (Хороший звук DUB, MVO) [ 12.42 GB ] Цветы на чердаке / Flowers in the Attic [1987 BDRip 1080p] MVO VO msltel Скачать
1 | 0

28-11-2019 20:33  

Отключить всю рекламу на сайте

    Дорогой пользователь! Огромная просьба, поблагодарите релизера, оцените раздачу и оставьте свои комментарий, если Вы скачали Цветы на чердаке через торрент бесплатно! Внесите свою лепту в развитие PiratBit!
    Комментировать посты могут только пользователи прошедшие не сложную регистрацию
    Показать сообщения:    

    Цветы на чердаке через торрент
    Скачать бесплатно Цветы на чердаке
    Цветы на чердаке скачать торрент
    Цветы на чердаке смотреть онлайн
    Cкачать фильм Цветы на чердаке бесплатно
    Цветы на чердаке скачать торрент в хорошем качестве
    Цветы на чердаке смотреть онлайн бесплатно в хорошем качестве


    Вы не можете начинать темы
    Вы не можете отвечать на сообщения
    Вы не можете редактировать свои сообщения
    Вы не можете удалять свои сообщения
    Вы не можете голосовать в опросах
    Вы не можете прикреплять файлы к сообщениям
    Вы можете скачивать файлы