Ссылка на приватное зеркало нашего сайта всего за 1$. Внимание количество ограничено!!!

2 сезон

iTunes

1 сезон

1

2 сезон

2 сезон

iTunes

1 сезон

RePack

30

Ultimate

ВАЖНО

ИГРА 18+

pack

RePack

MK11
pack

Забери бонус

RePack

jed

!!Акция!!

Alien_Rage

RePack

fifa19

RePack

Assassins Creed: Odyssey

RePack

NEED FOR SPEED™ PAYBACK

4 сезон

9 сезон

Бесстыжие 9 сезон

Все сериалы

все сериалы на PB.wtf

RePack

FAR CRY 5
  

Трансформеры: Месть падших / Transformers: Revenge of the Fallen (Майкл Бэй) [2009, Фантастика, боевик, приключения, HDRip] [IMAX Version] [AVO] (А.Гаврилов) pb.wtf

Трансформеры: Месть падших через торрент pb.wtf

Размер: 2.18 GB | Добавлен: 6 лет 9 мес. назад | Торрент скачан:326 раз
Скачать  

12-02-2014 10:27 Трансформеры: Месть падших Скачать торрент  

Трансформеры: Месть падших / Transformers: Revenge of the Fallen
Год выхода:2009
Жанр: Фантастика, боевик, приключения
Страна:США
Продолжительность:02:30:24
Перевод: Авторский (одноголосный)[А.Гаврилов]

Режиссер: Майкл Бэй / Michael Bay

В ролях: Меган Фокс, Шайа ЛаБаф, Изабель Лукас, Джош Дюамель, Хьюго Уивинг, Майкл Пападжон, Джон Туртурро, Америка Оливо, Рэйн Уилсон, Фрэнк Уэлкер

Описание: Прошло два года с тех пор, как юный Сэм Уитвикки спас Вселенную, предотвратив глобальную битву между враждующими воинственными расами инопланетных роботов. Несмотря на свои героические подвиги, Сэм остается обычным подростком с обычными проблемами поступление в колледж и родителями. Разумеется, отъезд будет тяжело воспринят лучшим другом, роботом телохранителем Бамблби.

Качество: HDRip
Формат: AVI
Видео кодек: XviD
Аудио кодек: AC3
Видео: 720x400 (1.80:1), 23.976 fps, XviD build 50 ~1615 kbps avg, 0.23 bit/pixel
Аудио: 48 kHz, AC3 Dolby Digital, 3/2 (L,C,R,l,r) + LFE ch, ~448.00 kbps avg
General
Complete name : E:INTERNETTransformers_Revenge of the Fallen.2009.HDRip.[IMAX] [Gavrilov].avi
Format : AVI
Format/Info : Audio Video Interleave
Format profile : OpenDML
File size : 2.18 GiB
Duration : 2h 30mn
Overall bit rate : 2 074 Kbps
Writing application : VirtualDubMod 1.5.10.3 (build 2550/release)
Writing library : VirtualDubMod build 2550/release

Video
ID : 0
Format : MPEG-4 Visual
Format profile : Advanced Simple@L5
Format settings, BVOP : 1
Format settings, QPel : No
Format settings, GMC : No warppoints
Format settings, Matrix : Custom
Codec ID : XVID
Codec ID/Hint : XviD
Duration : 2h 30mn
Bit rate : 1 615 Kbps
Width : 720 pixels
Height : 400 pixels
Display aspect ratio : 16:9
Frame rate : 23.976 fps
Color space : YUV
Chroma subsampling : 4:2:0
Bit depth : 8 bits
Scan type : Progressive
Compression mode : Lossy
Bits/(Pixel*Frame) : 0.234
Stream size : 1.70 GiB (78%)
Writing library : XviD 1.2.1 (UTC 2008-12-04)

Audio
ID : 1
Format : AC-3
Format/Info : Audio Coding 3
Mode extension : CM (complete main)
Codec ID : 2000
Duration : 2h 30mn
Bit rate mode : Constant
Bit rate : 448 Kbps
Channel(s) : 6 channels
Channel positions : Front: L C R, Side: L R, LFE
Sampling rate : 48.0 KHz
Bit depth : 16 bits
Compression mode : Lossy
Stream size : 482 MiB (22%)
Alignment : Split accross interleaves
Interleave, duration : 42 ms (1.00 video frame)
Interleave, preload duration : 500 ms
Данная версия фильма включает IMAX сцены. Она длиннее почти на 30 секунд, IMAX сцены это сцены снятые на специальную IMAX камеру они имеют разрешение 1280х720, именно по-этому видеоряд с "черными полями". Обрезать нет смысла, ибо весь смысл IMAX версии пропадет. На просмотр никак не повлияет, так что качайте спокойно.
pb.wtf



Скачать Трансформеры: Месть падших через торрент http://s006.radikal.ru/i214/1402/0c/f93a0739a3af.jpg Скачать фильм Трансформеры: Месть падших через торрент бесплантно в хорошем качестве Описание: Прошло два года с тех пор, как юный Сэм Уитвикки спас Вселенную, предотвратив глобальную битву между враждующими воинственными ... 10 10 11
Info! Золотая раздача, скачанное не засчитывается.
Торрент: Зарегистрирован [2014-02-12 10:27] · скачан: 326 раз
Статус: √ проверено
Размер: 2.18 GB
Как cкачать? Как скачать Трансформеры: Месть падших через торрент | qTorrent

% Раздел Тема Автор DL S | L
Фильмы (Blu-ray, BD-Remux, HDDVD) [ 39.88 GB ] Трансформеры: Месть падших / Transformers: Revenge of the Fallen [2009 Blu-ray Remux IMAX 1080p] walle Скачать
1 | 0
Фильмы 2009 [ 2.18 GB ] Трансформеры: Месть падших / Transformers: Revenge of the Fallen [2009 HDRip][ лицензия ] SD Скачать
1 | 0
Фильмы 2009 [ 2.91 GB ] Трансформеры: Месть падших / Transformers: Revenge of the Fallen [2009 BDRip] macaron Скачать
1 | 0
Фильмы (HD 720p, 1080p) (48-60 fps) [ 14.23 GB ] Трансформеры: Месть падших / Transformers: Revenge of the Fallen [2009 BDRip 720p ] 60 fps -=DANTE=- Скачать
1 | 0
Фильмы [HD 720p, 1080p] (Хороший звук DUB, MVO) [ 11.6 GB ] Трансформеры: Месть падших / Transformers: Revenge of the Fallen [2009 BDRip 1080p + Оригинал] Бумер Скачать
1 | 0
Фильмы 2009 [ 1.36 GB ] Трансформеры: Месть падших / Transformers: Revenge of the Fallen [2009 DVDRip] DEVI Скачать
1 | 0
Неофициальные cаундтреки к зарубежным фильмам [ 82 MB ] Трансформеры 2 Месть падших - OST Transformers Revenge Of The Fallen - 2009 MP3 256 kbps steepman1 Скачать
1 | 0

28-11-2019 20:33  

Отключить всю рекламу на сайте

    Дорогой пользователь! Огромная просьба, поблагодарите релизера, оцените раздачу и оставьте свои комментарий, если Вы скачали Трансформеры: Месть падших через торрент бесплатно! Внесите свою лепту в развитие PiratBit!
    Комментировать посты могут только пользователи прошедшие не сложную регистрацию
    Показать сообщения:    

    Трансформеры: Месть падших через торрент
    Скачать бесплатно Трансформеры: Месть падших
    Трансформеры: Месть падших скачать торрент
    Трансформеры: Месть падших смотреть онлайн
    Cкачать фильм Трансформеры: Месть падших бесплатно
    Трансформеры: Месть падших скачать торрент в хорошем качестве
    Трансформеры: Месть падших смотреть онлайн бесплатно в хорошем качестве


    Вы не можете начинать темы
    Вы не можете отвечать на сообщения
    Вы не можете редактировать свои сообщения
    Вы не можете удалять свои сообщения
    Вы не можете голосовать в опросах
    Вы не можете прикреплять файлы к сообщениям
    Вы можете скачивать файлы