MEGA SALE -50% FORZA HORIZON 4 ULTIMATE+ВСЕ DLC+ОНЛАЙН всего за 599р. 299 руб. (супер цена). Внимание количество ограничено!!!

iTunes

1+1

iTunes

мы

iTunes

1

iTunes

Чернобыль

iTunes

Ральф против интернета

Лицензия

ПШазам

Лицензия

Игра престолов

Лицензия

30
pack

ВАЖНО

!!Акция!!

Alien_RageХит недели

RePack

Resident Evil 21

ИГРА 18+

pack

RePack

Metro:Exodus

!!Акция!!

Alien_Rage

RePack

fifa19

RePack

Assassins Creed: Odyssey

RePack

NEED FOR SPEED™ PAYBACK

3 сезон

9 сезон

Бесстыжие 9 сезон

Все сериалы

все сериалы на PB.wtf

RePack

FAR CRY 5
Ребята, катастрофически не хватает 7730р. для оплаты серверов за АВГУСТ (всвязи с блокировками трафик упал в 3 раза), 1-2р., выручайте.
  

Англичанин / The Limey (Стивен Содерберг / Steven Soderbergh) [1999, США, триллер, драма, криминал, HDRip-AVC, DVO, AVO, Original, SUB] от R.G. PiratFilms pb.wtf

Англичанин через торрент pb.wtf

Размер: 2.18 GB | Добавлен: 5 лет 7 мес. назад | Торрент скачан:16 раз
Скачать  

12-02-2014 16:53 Англичанин Скачать торрент  

Англичанин / The Limey

Слоган: «Сейчас он особо опасен»
Год выпуска: 1999
Страна: США
Жанр: триллер, драма, криминал, детектив
Продолжительность: 01:29:13
Перевод: Профессиональный (Двухголосый) + Авторский (Гаврилов Андрей) + Оригинальный
Субтитры: Russian, English, English SDH with Lirics

Режиссер: Стивен Содерберг / Steven Soderbergh

В ролях: Теренс Стэмп (Wilson), Лесли Энн Уоррен (Elaine), Луис Гусман (Eduardo Roel), Бэрри Ньюман (Jim Avery), Джо Даллесандро (Uncle John), Никки Кэтт (Stacy the Hitman), Питер Фонда (Terry Valentine), Амелия Хайнл (Adhara), Мелисса Джордж (Jennifer «Jenny» Wilson), Уильям Лаккинг (Warehouse Foreman), Мэттью Кимбро (Tom Johannson), Джон Роботэм (Rick)

Описание: Уилсон только что вышел из тюрьмы, в которой отсидел девять лет своей жизни. Еще в тюрьме он узнал о гибели своей единственной дочери. Убежденный в том, что смерть ее была результатом вовсе не несчастного случая, он отправляется в Лос-Анджелес, чтобы расквитаться за дочь. С помощью Эдуардо, единственного человека, который что-то знал о последних днях жизни Дженни, Уилсон начинает поиск виновных в ее смерти...



Рейтинг
kinopoisk.ru: 6.601 (491)
imdb.com: 7.10 (21 324)
MPAA: R - Лицам до 17 лет обязательно присутствие взрослого
Бюджет: $10 000 000
Сборы в США: $3 204 663
Мировая премьера: 15 мая 1999
Релиз на DVD: 21 августа 2008

  • Качество: HDRip-AVC
  • Формат: MKV
  • Видео кодек: AVC
  • Аудио кодек: AC3
  • Видео: AVC, 1024x552 (1.855), 1907 kbps, 23,976 fps, 0,141 bpp
  • Аудио №1: русский / AC3 / 5.1 / 48 kHz / 448 kbps / 16 bit |DVO, R5|
  • Аудио №2: русский / AC3 / 5.1 / 48 kHz / 384 kbps / 16 bit |DVO|
  • Аудио №3: русский / AC3 / 2.0 / 48 kHz / 192 kbps / 16 bit |AVO, Gavrilov|
  • Аудио №4: английский / AC3 / 5.1 / 48 kHz / 576 kbps / 16 bit |Original main track|
    • Начало съемок - 1 октября 1998.
    • Первоначально Содерберг хотел, чтобы главную роль сыграл Майкл Кэйн.
    • Сцены-флэшбеки с молодым Уилсоном позаимствованы из режиссерского дебюта Кена Лоача «Бедная корова» (1967), в котором Теренс Стэмп также сыграл вора по имени Дэйв. В фильме Содерберга мы не знаем, как зовут Уилсона, но в сценарии он тоже был Дэйвом.
    • Англичанин слушает песню Искатель группы The Who. В 1960-х одним из менеджером этой группы был Крис Стэмп, брат Теренса Стэмпа.
    • Терри Валентайн смотрит по телевизору программу, в которой показывают Джорджа Клуни. Клуни сыграл в предыдущей ленте Содерберга - «Вне поля зрения»(1998).
    • Эд, помощник Англичанина, весь фильм носит рубашки с изображениями знаменитых политических фигур. Вначале это Аятолла Хомейни, потом - Че Гевара, далее - Мао Цзэ-дун.
    • Энн-Маргрет сыграла бывшую жену Валентайна, однако Содерберг сцены с ее участием убрал.
    • еще 4 факта
    x264 [info]: frame I:909 Avg QP:16.68 size: 71941 PSNR Mean Y:47.16 U:50.97 V:51.82 Avg:48.13 Global:47.52
    x264 [info]: frame P:24744 Avg QP:19.40 size: 21538 PSNR Mean Y:45.10 U:49.67 V:50.56 Avg:46.16 Global:45.46
    x264 [info]: frame B:102174 Avg QP:21.63 size: 6574 PSNR Mean Y:44.04 U:49.67 V:50.75 Avg:45.24 Global:44.39
    x264 [info]: consecutive B-frames: 1.6% 2.2% 5.0% 23.4% 7.9% 18.5% 3.9% 34.4% 1.8% 1.2%
    x264 [info]: mb I I16..4: 7.2% 80.3% 12.5%
    x264 [info]: mb P I16..4: 2.4% 9.3% 1.0% P16..4: 49.5% 17.8% 12.9% 0.3% 0.1% skip: 6.8%
    x264 [info]: mb B I16..4: 0.1% 0.6% 0.1% B16..8: 43.6% 7.5% 1.6% direct: 5.2% skip:41.2% L0:45.0% L1:48.7% BI: 6.3%
    x264 [info]: 8x8 transform intra:75.5% inter:69.0%
    x264 [info]: direct mvs spatial:99.1% temporal:0.9%
    x264 [info]: coded y,uvDC,uvAC intra: 75.6% 73.9% 40.0% inter: 21.6% 19.8% 1.0%
    x264 [info]: i16 v,h,dc,p: 37% 20% 8% 34%
    x264 [info]: i8 v,h,dc,ddl,ddr,vr,hd,vl,hu: 11% 8% 7% 10% 15% 13% 14% 11% 12%
    x264 [info]: i4 v,h,dc,ddl,ddr,vr,hd,vl,hu: 11% 9% 3% 10% 15% 14% 14% 11% 13%
    x264 [info]: i8c dc,h,v,p: 34% 29% 20% 17%
    x264 [info]: Weighted P-Frames: Y:3.5% UV:1.1%
    x264 [info]: ref P L0: 43.8% 10.2% 18.1% 7.6% 6.1% 4.7% 4.1% 2.5% 2.5% 0.3% 0.0%
    x264 [info]: ref B L0: 72.6% 11.8% 6.2% 3.3% 2.5% 2.1% 1.2% 0.4%
    x264 [info]: ref B L1: 92.1% 7.9%
    Формат : Matroska
    Версия формата : Version 4 / Version 2
    Размер файла : 2,18 Гбайт
    Продолжительность : 1 ч. 29 м.
    Общий поток : 3497 Кбит/сек
    Название фильма : The Limey (1999) HDRip-AVC
    Дата кодирования : UTC 2014-02-12 04:42:58
    Программа кодирования : mkvmerge v6.6.0 ('The Edge Of The In Between')
    built on Dec 1 2013 17:55:00
    Библиотека кодирования : libebml v1.3.0 + libmatroska v1.4.1
    Attachment : Yes

    Видео
    Идентификатор : 1
    Формат : AVC
    Формат/Информация : Advanced Video Codec
    Профиль формата : High@L4.1
    Параметр CABAC формата : Да
    Параметр ReFrames формата : 9 кадров
    Идентификатор кодека : V_MPEG4/ISO/AVC
    Продолжительность : 1 ч. 29 м.
    Битрейт : 1907 Кбит/сек
    Ширина : 1024 пикселя
    Высота : 552 пикселя
    Соотношение сторон : 1,85:1
    Режим частоты кадров : Постоянный
    Частота кадров : 23,976 кадра/сек
    Цветовое пространство : YUV
    Субдискретизация насыщенности : 4:2:0
    Битовая глубина : 8 бит
    Тип развёртки : Прогрессивная
    Бит/(Пиксели*Кадры) : 0.141
    Размер потока : 1,14 Гбайт (52%)
    Заголовок : Rip ot kep
    Библиотека кодирования : x264 core 138 r2358 9e941d1
    Настройки программы : cabac=1 / ref=9 / deblock=1:-2:-1 / analyse=0x3:0x133 /
    me=umh / subme=9 / psy=1 / psy_rd=1.00:0.00 / mixed_ref=1 / me_range=24 / chroma_me=1 /
    trellis=2 / 8x8dct=1 / cqm=0 / deadzone=21,11 / fast_pskip=0 / chroma_qp_offset=-2 /
    threads=2 / lookahead_threads=1 / sliced_threads=0 / nr=0 / decimate=1 / interlaced=0 /
    bluray_compat=0 / constrained_intra=0 / bframes=9 / b_pyramid=2 / b_adapt=2 / b_bias=0 /
    direct=3 / weightb=1 / open_gop=0 / weightp=2 / keyint=240 / keyint_min=23 / scenecut=40 /
    intra_refresh=0 / rc_lookahead=60 / rc=2pass / mbtree=1 / bitrate=1907 / ratetol=1.0 /
    qcomp=0.60 / qpmin=10 / qpmax=51 / qpstep=4 / cplxblur=20.0 / qblur=0.5 / ip_ratio=1.40 /
    aq=1:1.00
    Язык : English
    Default : Да
    Forced : Нет

    Аудио #1
    Идентификатор : 2
    Формат : AC-3
    Формат/Информация : Audio Coding 3
    Расширение режима : CM (complete main)
    Параметр Endianness формата : Big
    Идентификатор кодека : A_AC3
    Продолжительность : 1 ч. 29 м.
    Вид битрейта : Постоянный
    Битрейт : 448 Кбит/сек
    Каналы : 6 каналов
    Расположение каналов : Front: L C R, Side: L R, LFE
    Частота : 48,0 КГц
    Битовая глубина : 16 бит
    Метод сжатия : С потерями
    Размер потока : 286 Мбайт (13%)
    Заголовок : ac3 5.1 @ 448 kbps |DVO, R5|
    Язык : Russian
    Default : Нет
    Forced : Нет

    Аудио #2
    Идентификатор : 3
    Формат : AC-3
    Формат/Информация : Audio Coding 3
    Расширение режима : CM (complete main)
    Параметр Endianness формата : Big
    Идентификатор кодека : A_AC3
    Продолжительность : 1 ч. 29 м.
    Вид битрейта : Постоянный
    Битрейт : 384 Кбит/сек
    Каналы : 6 каналов
    Расположение каналов : Front: L C R, Side: L R, LFE
    Частота : 48,0 КГц
    Битовая глубина : 16 бит
    Метод сжатия : С потерями
    Размер потока : 245 Мбайт (11%)
    Заголовок : ac3 5.1 @ 384 kbps |DVO|
    Язык : Russian
    Default : Да
    Forced : Нет

    Аудио #3
    Идентификатор : 4
    Формат : AC-3
    Формат/Информация : Audio Coding 3
    Расширение режима : CM (complete main)
    Параметр Endianness формата : Big
    Идентификатор кодека : A_AC3
    Продолжительность : 1 ч. 29 м.
    Вид битрейта : Постоянный
    Битрейт : 192 Кбит/сек
    Каналы : 2 канала
    Расположение каналов : Front: L R
    Частота : 48,0 КГц
    Битовая глубина : 16 бит
    Метод сжатия : С потерями
    Размер потока : 123 Мбайт (5%)
    Заголовок : ac3 2.0 @ 192 kbps |AVO, Gavrilov|
    Язык : Russian
    Default : Нет
    Forced : Нет

    Аудио #4
    Идентификатор : 5
    Формат : AC-3
    Формат/Информация : Audio Coding 3
    Расширение режима : CM (complete main)
    Параметр Endianness формата : Big
    Идентификатор кодека : A_AC3
    Продолжительность : 1 ч. 29 м.
    Вид битрейта : Постоянный
    Битрейт : 576 Кбит/сек
    Каналы : 6 каналов
    Расположение каналов : Front: L C R, Side: L R, LFE
    Частота : 48,0 КГц
    Битовая глубина : 16 бит
    Метод сжатия : С потерями
    Размер потока : 368 Мбайт (16%)
    Заголовок : ac3 5.1 @ 576 Kbps |Original main track|
    Язык : English
    Default : Нет
    Forced : Нет

    Текст #1
    Идентификатор : 6
    Формат : UTF-8
    Идентификатор кодека : S_TEXT/UTF8
    Идентификатор кодека/Информация : UTF-8 Plain Text
    Заголовок : Russian
    Язык : Russian
    Default : Нет
    Forced : Нет

    Текст #2
    Идентификатор : 7
    Формат : UTF-8
    Идентификатор кодека : S_TEXT/UTF8
    Идентификатор кодека/Информация : UTF-8 Plain Text
    Заголовок : SDH with lyrics
    Язык : English
    Default : Нет
    Forced : Нет

    Текст #3
    Идентификатор : 8
    Формат : UTF-8
    Идентификатор кодека : S_TEXT/UTF8
    Идентификатор кодека/Информация : UTF-8 Plain Text
    Заголовок : English
    Язык : English
    Default : Нет
    Forced : Нет

    Семпл / Трейлер pb.wtf



  • Скачать Англичанин через торрент http://i4.imageban.ru/out/2014/02/12/fbf7e23084a273cc1024259d8685fe1f.png Скачать фильм Англичанин через торрент бесплантно в хорошем качестве Описание: Уилсон только что вышел из тюрьмы, в которой отсидел девять лет своей жизни. Еще в тюрьме он узнал о гибели своей единственной ... 9.8 10 6
    × Info от релизера! Англичанин / The Limey
    Info! Золотая раздача, скачанное не засчитывается.
    Торрент: Зарегистрирован [2014-02-12 17:57] · скачан: 16 раз
    Статус: √ проверено
    Размер: 2.18 GB
    Как cкачать? Как скачать Англичанин через торрент | qTorrent


    >> Регистрируемся здесь <<






    Отзывы и комментарии о схеме читаем и пишем здесь: ---> Отзывы и комментарии о схеме

    Новые благодарочки в телеграм довольных пользователей:
    скриншот   скриншот   скриншот   скриншот   скриншот
      Дорогой пользователь! Огромная просьба, поблагодарите релизера, оцените раздачу и оставьте свои комментарий, если Вы скачали Англичанин через торрент бесплатно! Внесите свою лепту в развитие PiratBit!
      Комментировать посты могут только пользователи прошедшие не сложную регистрацию
      Показать сообщения:    

      Англичанин через торрент
      Скачать бесплатно Англичанин
      Англичанин скачать торрент
      Англичанин смотреть онлайн
      Cкачать фильм Англичанин бесплатно
      Англичанин скачать торрент в хорошем качестве
      Англичанин смотреть онлайн бесплатно в хорошем качестве


      Вы не можете начинать темы
      Вы не можете отвечать на сообщения
      Вы не можете редактировать свои сообщения
      Вы не можете удалять свои сообщения
      Вы не можете голосовать в опросах
      Вы не можете прикреплять файлы к сообщениям
      Вы можете скачивать файлы