новый адрес пиратбит piratbit
Мега распродажа FORZA HORIZON 4 ULTIMATE+ВСЕ DLC+ОНЛАЙН всего за 499р. 349 руб. (супер цена). Внимание количество ограничено!!!

iTunes

1+1

iTunes

мы

iTunes

1

iTunes

Чернобыль

iTunes

Ральф против интернета

Лицензия

ПШазам

Лицензия

Игра престолов

Лицензия

30
pack

ВАЖНО

!!Акция!!

Alien_RageХит недели

RePack

Resident Evil 21

ИГРА 18+

pack

RePack

Metro:Exodus

!!Акция!!

Alien_Rage

RePack

fifa19

RePack

Assassins Creed: Odyssey

RePack

NEED FOR SPEED™ PAYBACK

3 сезон

9 сезон

Бесстыжие 9 сезон

Все сериалы

все сериалы на PB.wtf

RePack

FAR CRY 5
Ребята, катастрофически не хватает 1900р. для оплаты серверов за Октябрь (всвязи с блокировками трафик упал в 3 раза), 1-2р., выручайте.
  

Мираж / Cерии 1-3 из 3 (Алоиз Бренч) [1983 г., Драма, детектив, триллер, экранизация, DVDRip] DUB pb.wtf

Мираж через торрент pb.wtf

Размер: 2.18 GB | Добавлен: 5 лет 9 мес. назад | Торрент скачан:34 раза
Скачать  

12-02-2014 18:25 Мираж Скачать торрент  

Мираж
Год выпуска: 1983
Страна: СССР Рижская киностудия
Жанр: Драма, детектив, триллер, экранизация
Продолжительность: 3 х~ 01:08:00
Перевод: Дубляж
Роли дублировали: Ирина Губанова, Алексей Панькин, Феликс Яворский, Алексей Сафонов

Режиссер: Алоиз Бренч
Сценарий: Алвис Лапиньш, Джеймс Хэдли Чейз

Премьера в мире: 10 августа 1983





В ролях: Мирдза Мартинсоне, Мартиньш Вилсонс, Арнис Лицитис, Регимантас Адомайтис, Интс Буранс, Борис Иванов, Андрис Берзиньш, Янис Клушс, Паул Буткевич, Бронислав Лизбовскис, Майя Эглите, Волдемар Шориньш, Карлис Зушманис, Арийс Гейкинс, Ласма Мурниеце-Кугрена, Айварс Силиньш, Ромуальд Анцанс, Улдис Ваздикс, Улдис Норенбергс, Вилнис Бекерис, Мартыньш Вердыньш, Юрис Каминскис

Описание: По мотивам романа Дж. Х. Чейза "Весь мир в кармане". Их было пятеро, решившихся на дерзкое ограбление. План был продуман до мельчайших подробностей, и каждый надеялся, что с такими деньгами весь мир будет у него в кармане, и он сможет начать новую жизнь. Но мечты разбились о реальность.
: * Автомобиль, который используют главные герои-американский Pontiac Grand Ville 1972 года выпуска.
* Имевшихся в распоряжении съемочной группы американских автомобилей оказалось недостаточно для съемок фильма, поэтому пришлось использовать также отечественные автомобили. Так, джип американской армии «сыграл» закамуфлированный ГАЗ-69, а броневик «Welling super box», который угнали главные герои фильма, не что иное как оттюнингованная «Нива». Интересно, что в начале 90-х конструкторы тольяттинской фирмы «СПА Бронто», вдохновлённые сюжетом фильма, спроектировали реальный инкассаторский броневик на базе ВАЗ-2121. Производством подобных машин на базе Нивы эта компания занимается до сих пор.
* Большую помощь художникам ленты оказал сотрудник американского посольства Поч, который консультировал о правильном выборе формы для актёров, играющих роль полицейских штата Невада.
* В отличие от романа «Весь мир в кармане» сюжет местами имеет политическую окраску, добавлен персонаж безработного с «левыми» взглядами, ставшего «козлом отпущения» для полиции.
* Существенная часть фильма снималась в Крыму, так что горы штата Невада не что иное, как горы полуострова в Чёрном море. Съемки проходили в том числе в таком живописном и необычном месте Крыма, как Ак-Кая или Белая скала.
Качество: DVDRip
Формат: AVI
Видео кодек: XviD
Аудио кодек: AC3
Видео: Xvid 704x512, 25.00fps, 1 039 Kbps
Аудио: Dolby AC3, 48000Hz, 6ch, 384kbps
Релиз от: zorgi





General
Complete name : D:�9 02 2014Miraz1.avi
Format : AVI
Format/Info : Audio Video Interleave
File size : 697 MiB
Duration : 1h 7mn
Overall bit rate : 1 433 Kbps
Movie name : http://reliztv.com/
Director : http://reliztv.com/
Writing application : FairUse Wizard - http://fairusewizard.com
Comment : http://reliztv.com/

Video
ID : 0
Format : MPEG-4 Visual
Format profile : Advanced Simple@L5
Format settings, BVOP : 1
Format settings, QPel : No
Format settings, GMC : No warppoints
Format settings, Matrix : Default (MPEG)
Muxing mode : Packed bitstream
Codec ID : XVID
Codec ID/Hint : XviD
Duration : 1h 7mn
Bit rate : 1 039 Kbps
Width : 704 pixels
Height : 512 pixels
Display aspect ratio : 1.375
Frame rate : 25.000 fps
Color space : YUV
Chroma subsampling : 4:2:0
Bit depth : 8 bits
Scan type : Progressive
Compression mode : Lossy
Bits/(Pixel*Frame) : 0.115
Stream size : 505 MiB (73%)
Writing library : XviD 1.2.0.dev47 (UTC 2006-11-01)

Audio
ID : 1
Format : AC-3
Format/Info : Audio Coding 3
Mode extension : CM (complete main)
Codec ID : 2000
Duration : 1h 7mn
Bit rate mode : Constant
Bit rate : 384 Kbps
Channel(s) : 6 channels
Channel positions : Front: L C R, Side: L R, LFE
Sampling rate : 48.0 KHz
Bit depth : 16 bits
Compression mode : Lossy
Stream size : 187 MiB (27%)
Alignment : Split accross interleaves
Interleave, duration : 40 ms (1.00 video frame)
Interleave, preload duration : 500 ms

pb.wtf



Скачать Мираж через торрент http://pic.kartinco.top/images/6/uvf19.jpg Скачать фильм Мираж через торрент бесплантно в хорошем качестве Описание: По мотивам романа Дж. Х. Чейза "Весь мир в кармане". Их было пятеро, решившихся на дерзкое ограбление. План был продуман до ... 10 10 6
Info! Золотая раздача, скачанное не засчитывается.
Торрент: Зарегистрирован [2014-02-12 18:25] · скачан: 34 раз
Статус: √ проверено
Размер: 2.18 GB
Как cкачать? Как скачать Мираж через торрент | qTorrent


>> Регистрируемся здесь <<






Отзывы и комментарии о схеме читаем и пишем здесь: ---> Отзывы и комментарии о схеме

Новые благодарочки в телеграм довольных пользователей:
скриншот   скриншот   скриншот   скриншот   скриншот

24-02-2014 12:35 Мираж Скачать торрент  

Фильм Превосходен.Актеры,игра все на высшем уровнеpb.wtf



    Дорогой пользователь! Огромная просьба, поблагодарите релизера, оцените раздачу и оставьте свои комментарий, если Вы скачали Мираж через торрент бесплатно! Внесите свою лепту в развитие PiratBit!
    Комментировать посты могут только пользователи прошедшие не сложную регистрацию
    Показать сообщения:    

    Мираж через торрент
    Скачать бесплатно Мираж
    Мираж скачать торрент
    Мираж смотреть онлайн
    Cкачать фильм Мираж бесплатно
    Мираж скачать торрент в хорошем качестве
    Мираж смотреть онлайн бесплатно в хорошем качестве


    Вы не можете начинать темы
    Вы не можете отвечать на сообщения
    Вы не можете редактировать свои сообщения
    Вы не можете удалять свои сообщения
    Вы не можете голосовать в опросах
    Вы не можете прикреплять файлы к сообщениям
    Вы можете скачивать файлы