Ссылка на приватное зеркало всего за 1$. Внимание количество ограничено!!!

OK

1+1

iTunes

мы

OK

1

WEB-DLRip

Джокер

Пифагор

Ведьмак / The Witcher сериал

iTunes

ПШазам

ОК

Оно 2

iTunes

30
pack

Вам бонус

ВАЖНО

!!Акция!!

Alien_RageХит недели

RePack

Resident Evil 21

ИГРА 18+

pack

RePack

jed

RePack

fifa19

RePack

Assassins Creed: Odyssey

RePack

NEED FOR SPEED™ PAYBACK

4 сезон

9 сезон

Бесстыжие 9 сезон

Все сериалы

все сериалы на PB.wtf

RePack

FAR CRY 5
  

Тёмный мир: Равновесие (Олег Асадулин) [2013 г., фэнтези, приключения, WEB-DLRip] pb.wtf

Тёмный мир: Равновесие через торрент pb.wtf

Размер: 1.46 GB | Добавлен: 5 лет 11 мес. назад | Торрент скачан:1358 раз
Скачать  

02-01-2014 21:45 Тёмный мир: Равновесие Скачать торрент  

Тёмный мир: Равновесие
Год выпуска: 2013
Страна: Россия
Жанр: фэнтези, приключения,
Продолжительность: 01:35:01

Режиссер: Олег Асадулин
Продюссер: Наталия Клибанова
Сценарий: Марина Дяченко, Сергей Дяченко

Бюджет: $2 118 871
Премьера в мире: 5 декабря 2013

IMDB 3.90 (38)


В ролях: Мария Пирогова, Павел Прилучный, Макар Запорожский, Евгения Брик, Александр Ратников, Владислав Абашин, Петр Семак, Алиса Хазанова, Валерий Опёнкин, Тимофей Носков,

Описание: Каждый день они крадут твои силы, твои эмоции, твою любовь. Мы называем их Тени. Работа таких, как мы — доставлять их обратно в Тёмный мир. Надвигается катастрофа, и человечество может оказаться во власти тьмы...И только мы можем сохранить равновесие.

Качество: WEB-DLRip
Формат: AVI
Видео кодек: XviD
Аудио кодек: AC3
Видео: 720x304 (2.37:1), 24 fps, XviD build 50 ~1798 kbps avg, 0.34 bit/pixel
Аудио#1: 48 kHz, AC3 Dolby Digital, 3/2 (L,C,R,l,r) + LFE ch, ~384 kbps
D:DownloadsTemniy.2013.O.WEBDLRip.1400Mb.avi
General
Complete name : D:DownloadsTemniy.2013.O.WEBDLRip.1400Mb.avi
Format : AVI
Format/Info : Audio Video Interleave
File size : 1.46 GiB
Duration : 1h 35mn
Overall bit rate : 2 192 Kbps
Writing application : VirtualDubMod 1.5.10.2 (build 2540/release)
Writing library : VirtualDubMod build 2540/release
Video #0
ID : 0
Format : MPEG-4 Visual
Format profile : Advanced Simple@L5
Format settings, BVOP : 2
Format settings, QPel : No
Format settings, GMC : No warppoints
Format settings, Matrix : Custom
Codec ID : XVID
Codec ID/Hint : XviD
Duration : 1h 35mn
Bit rate : 1 799 Kbps
Width : 720 pixels
Height : 304 pixels
Display aspect ratio : 2.35:1
Frame rate : 24.000 fps
Color space : YUV
Chroma subsampling : 4:2:0
Bit depth : 8 bits
Scan type : Progressive
Compression mode : Lossy
Bits/(Pixel*Frame) : 0.342
Stream size : 1.20 GiB (82%)
Writing library : XviD 1.2.1 (UTC 2008-12-04)
Audio #1
ID : 1
Format : AC-3
Format/Info : Audio Coding 3
Mode extension : CM (complete main)
Codec ID : 2000
Duration : 1h 35mn
Bit rate mode : Constant
Bit rate : 384 Kbps
Channel(s) : 6 channels
Channel positions : Front: L C R, Side: L R, LFE
Sampling rate : 48.0 KHz
Bit depth : 16 bits
Compression mode : Lossy
Stream size : 261 MiB (18%)
Alignment : Split accross interleaves
Interleave, duration : 42 ms (1.00 video frame)
Interleave, preload duration : 500 ms



Тёмный мир: Равновесие скачать торрент


pb.wtf



Скачать Тёмный мир: Равновесие через торрент http://i59.fastpic.ru/big/2014/0103/4d/0cd8a8b48f3eda722a451f31449d1f4d.jpg Скачать фильм Тёмный мир: Равновесие через торрент бесплантно в хорошем качестве Описание: Каждый день они крадут твои силы, твои эмоции, твою любовь. Мы называем их Тени. Работа таких, как мы — доставлять их обратно в ... 9.1 10 64
Info! Золотая раздача, скачанное не засчитывается.
Торрент: Зарегистрирован [2014-02-12 19:19] · скачан: 1 358 раз
Статус: √ проверено
Размер: 1.46 GB
Как cкачать? Как скачать Тёмный мир: Равновесие через торрент | qTorrent

% Раздел Тема Автор DL S | L
Наши сериалы [ 13.21 GB ] Тёмный мир: Равновесие [01-12 из 12] [2014 WEB-DLRip 720p] Assasinca Скачать
1 | 0
Наши фильмы (Blu-ray, BD-Remux, HDDVD) [ 17.5 GB ] Тёмный мир: Равновесие [2013 фентези Blu-Ray Remux [GER Transfer] () Ворон Скачать
1 | 0
Наши сериалы [ 7.73 GB ] Тёмный мир: Равновесие / Сезон: 1 / Серия 12-12) [2013 Россия SATRip] Ворон Скачать
1 | 0
Наши фильмы (DVD фильмы) [ 4.28 GB ] Тёмный мир: Равновесие [2013 DVD5] R5 voovaz Скачать
1 | 0
Наши фильмы (HD, WEB-DL 720p, 1080p) [ 3.02 GB ] Тёмный мир: Равновесие [2013 Россия WEB-DL 720p] Messa-fan Скачать
2 | 0
Наши фильмы (HD, WEB-DL 720p, 1080p) [ 3.08 GB ] Тёмный мир: Равновесие [2013 WEB-DL 1080p] Drakosha Скачать
1 | 0
Трейлеры и дополнительные материалы к фильмам [ 119 MB ] Тёмный мир: Равновесие [2013 фентезиHDTVRip 1080p] Ворон Скачать
1 | 0

28-11-2019 20:33  

Отключить всю рекламу на сайте


03-01-2014 05:56 Тёмный мир: Равновесие Скачать торрент  

постер посрать присела... или под паука косит....pb.wtf



03-01-2014 09:44 Тёмный мир: Равновесие Скачать торрент  

vavanos писал(а):

постер посрать присела... или под паука косит....

Что первая часть овно то и этаpb.wtf



03-01-2014 13:15 Тёмный мир: Равновесие Скачать торрент  

лучше в правильное дело бы, 2 мульта впихали...... :ng:pb.wtf



05-01-2014 17:21 Тёмный мир: Равновесие Скачать торрент  

Возвращение кала))pb.wtf



06-01-2014 20:11 Тёмный мир: Равновесие Скачать торрент  

Не знаю почему столько негатива фильм вообщем неплох я посмотрел на одном дыхании (даже не ожидал)pb.wtf



02-02-2014 19:39 Тёмный мир: Равновесие Скачать торрент  

Походу все тупо срубили бабла,игра актёров никакая,сценарий никакой в итоге как говаривал Станиславский-НЕ ВЕРЮ! pb.wtf





Последний раз редактировалось: aquwarius (2017-10-07 16:01), всего редактировалось 1 раз

09-10-2016 09:28 Тёмный мир: Равновесие Скачать торрент  

это не видел, но первая часть была норм, главное воспринимать как есть, а не через фильтр жвачки голливудаpb.wtf



    Дорогой пользователь! Огромная просьба, поблагодарите релизера, оцените раздачу и оставьте свои комментарий, если Вы скачали Тёмный мир: Равновесие через торрент бесплатно! Внесите свою лепту в развитие PiratBit!
    Комментировать посты могут только пользователи прошедшие не сложную регистрацию
    Показать сообщения:    

    Тёмный мир: Равновесие через торрент
    Скачать бесплатно Тёмный мир: Равновесие
    Тёмный мир: Равновесие скачать торрент
    Тёмный мир: Равновесие смотреть онлайн
    Cкачать фильм Тёмный мир: Равновесие бесплатно
    Тёмный мир: Равновесие скачать торрент в хорошем качестве
    Тёмный мир: Равновесие смотреть онлайн бесплатно в хорошем качестве


    Вы не можете начинать темы
    Вы не можете отвечать на сообщения
    Вы не можете редактировать свои сообщения
    Вы не можете удалять свои сообщения
    Вы не можете голосовать в опросах
    Вы не можете прикреплять файлы к сообщениям
    Вы можете скачивать файлы