Ссылка на приватное зеркало нашего сайта всего за 1$. Внимание количество ограничено!!!

2 сезон

iTunes

1 сезон

1

iTunes

iTunes

iTunes

1 сезон

RePack

30

ИГРА 18+

pack

ВАЖНО

!!Акция!!

Alien_RageХит недели

RePack

MK11
pack

Забери бонус

RePack

jed

!!Акция!!

Alien_Rage

RePack

fifa19

RePack

Assassins Creed: Odyssey

RePack

NEED FOR SPEED™ PAYBACK

4 сезон

9 сезон

Бесстыжие 9 сезон

Все сериалы

все сериалы на PB.wtf

RePack

FAR CRY 5
  

РЭД 2 / Red 2 (Дин Паризо) [2013 г., боевик, триллер, комедия, криминал, BDRip 1080p, Дубляж] [Цифровая Лицензия / iTunes Russia] (Crop) pb.wtf

РЭД 2 через торрент pb.wtf

Размер: 7.29 GB | Добавлен: 6 лет 8 мес. назад | Торрент скачан:130 раз
Скачать  

14-11-2013 11:02 РЭД 2 Скачать торрент  

РЭД 2 / Red 2
Год выпуска: 2013
Страна: США, Франция, Канада
Жанр: Боевик, комедия,
Продолжительность: 01:55:48
Перевод: Дубляж [Цифровая Лицензия / iTunes Russia] + Оригинал

Режиссер: Дин Паризо
Продюссер: Лоренцо Ди Бонавентура, Марк Вахрадян, Рафаэль Бенолье,
Сценарий: Джон Хобер, Эрих Хобер, Уоррен Эллис

Бюджет: $84 000 000
Премьера в мире: 18 июля 2013



В ролях: Брюс Уиллис (Frank), Джон Малкович (Marvin), Мэри-Луиз Паркер (Sarah), Кэтрин Зета-Джонс (Katja), Ли Бён Хон (Han Cho Bai), Энтони Хопкинс (Bailey), Хелен Миррен (Victoria), Брайан Кокс (Ivan), Дэвид Тьюлис (The Frog), Чжон Кон Ли (Han's Father), Нил МакДонаф (Jack Horton), Гэррик Хэйгон (Davis),

Описание: Вышедший на пенсию тайный агент ЦРУ Фрэнк Мозес объединяется с командой старых друзей, элитных оперативников, с целью найти пропавшее оружие массового уничтожения. Чтобы его заполучить, придётся прорываться сквозь армии безжалостных наёмников, террористов и всегда жаждущих власти политиков.
Миссия приводит Фрэнка и его разношёрстную команду вышедших на пенсию убийц в Париж, Лондон и Москву. В их арсенале есть только хитрость, старая сноровка и помощь друг друга, чтобы спасти мир и при этом самим остаться в живых.


Доп. информация: Внимание: (CROP) Справа и слева видеоряд обрезан, что дает возможность просмотра на полный экран (без черных полос) на телевизорах с соотношением сторон 16:9 без изменения пропорций.

Качество: BDRip 1080p
Формат: MKV
Видео кодек: H.264
Аудио кодек: AC3
Видео: x264, 1920 x 1080, (16:9) 23.976 fps, 8306 Kbps, (0.167 bit/pixel)
Аудио#1: Русский / AC3 / 48 KHz / 6 ch / 384 Kbps
Аудио#2: Английский / AC3 / 48 KHz / 6 ch / 384 Kbps



скриншот   скриншот   скриншот   скриншот   скриншот   скриншот  
Общее
Уникальный идентификатор : 313102130716782213956590330253459625855 (0xEB8D46E438CE0DC324E65C7F6430977F)
Полное имя : E:Red.2.(2013).BDRip.1080p(Crop).mkv
Формат : Matroska
Версия формата : Version 2
Размер файла : 7,29 Гбайт
Продолжительность : 1 ч. 55 м.
Общий поток : 9017 Кбит/сек
Программа кодирования : HandBrake 0.9.9
Библиотека кодирования : libmkv 0.6.5

Видео
Идентификатор : 1
Формат : AVC
Формат/Информация : Advanced Video Codec
Профиль формата : Main@L4.0
Параметр CABAC формата : Нет
Параметр ReFrames формата : 4 кадра
Идентификатор кодека : V_MPEG4/ISO/AVC
Продолжительность : 1 ч. 55 м.
Битрейт : 8306 Кбит/сек
Ширина : 1920 пикселей
Высота : 1080 пикселей
Соотношение сторон : 16:9
Частота кадров : 23,976 кадра/сек
Цветовое пространство : YUV
Субдискретизация насыщенности : 4:2:0
Битовая глубина : 8 бит
Тип развёртки : Прогрессивная
Бит/(Пиксели*Кадры) : 0.167
Размер потока : 6,53 Гбайт (89%)
Библиотека кодирования : x264 core 130 r2273 b3065e6
Настройки программы : cabac=0 / ref=4 / deblock=0:-1:-1 / analyse=0:0 / me=dia / subme=0 / psy=1 / psy_rd=1.00:0.15 / mixed_ref=0 / me_range=16 / chroma_me=1 / trellis=0 / 8x8dct=0 / cqm=0 / deadzone=21,11 / fast_pskip=1 / chroma_qp_offset=0 / threads=3 / lookahead_threads=1 / sliced_threads=0 / nr=0 / decimate=1 / interlaced=0 / bluray_compat=0 / constrained_intra=0 / bframes=4 / b_pyramid=2 / b_adapt=0 / b_bias=0 / direct=1 / weightb=0 / open_gop=0 / weightp=0 / keyint=240 / keyint_min=24 / scenecut=0 / intra_refresh=0 / rc_lookahead=0 / rc=abr / mbtree=0 / bitrate=8306 / ratetol=1.0 / qcomp=0.60 / qpmin=0 / qpmax=69 / qpstep=4 / vbv_maxrate=20000 / vbv_bufsize=25000 / nal_hrd=none / ip_ratio=1.40 / pb_ratio=1.30 / aq=0
Язык : English
Основные цвета : BT.709-5, BT.1361, IEC 61966-2-4, SMPTE RP177
Характеристики трансфера : BT.709-5, BT.1361
Коэффициенты матрицы : BT.709-5, BT.1361, IEC 61966-2-4 709, SMPTE RP177

Аудио #1
Идентификатор : 2
Формат : AC-3
Формат/Информация : Audio Coding 3
Расширение режима : CM (complete main)
Идентификатор кодека : A_AC3
Продолжительность : 1 ч. 55 м.
Вид битрейта : Постоянный
Битрейт : 384 Кбит/сек
Каналы : 6 каналов
Расположение каналов : Front: L C R, Side: L R, LFE
Частота : 48,0 КГц
Битовая глубина : 16 бит
Метод сжатия : С потерями
Размер потока : 318 Мбайт (4%)

Аудио #2
Идентификатор : 3
Формат : AC-3
Формат/Информация : Audio Coding 3
Расширение режима : CM (complete main)
Идентификатор кодека : A_AC3
Продолжительность : 1 ч. 55 м.
Вид битрейта : Постоянный
Битрейт : 384 Кбит/сек
Каналы : 6 каналов
Расположение каналов : Front: L C R, Side: L R, LFE
Частота : 48,0 КГц
Битовая глубина : 16 бит
Метод сжатия : С потерями
Размер потока : 318 Мбайт (4%)
Язык : English

Меню
00:00:00.000 : Chapter 1
00:08:31.093 : Chapter 2
00:15:02.318 : Chapter 3
00:21:30.497 : Chapter 4
00:28:33.336 : Chapter 5
00:39:50.888 : Chapter 6
00:47:24.424 : Chapter 7
00:54:32.686 : Chapter 8
01:00:21.326 : Chapter 9
01:07:47.063 : Chapter 10
01:11:48.846 : Chapter 11
01:18:52.769 : Chapter 12
01:23:16.324 : Chapter 13
01:28:01.109 : Chapter 14
01:35:52.455 : Chapter 15
01:41:44.306 : Chapter 16
01:45:24.067 : Chapter 17
01:47:00.038 : Chapter 18

pb.wtf



Скачать РЭД 2 через торрент http://pic.kartinco.top/images/6/h3ltf.jpg Скачать фильм РЭД 2 через торрент бесплантно в хорошем качестве Описание: Вышедший на пенсию тайный агент ЦРУ Фрэнк Мозес объединяется с командой старых друзей, элитных оперативников, с целью найти ... 9 10 21
Info! Золотая раздача, скачанное не засчитывается.
Торрент: Зарегистрирован [2014-02-12 19:37] · скачан: 130 раз
Статус: √ проверено
Размер: 7.29 GB
Как cкачать? Как скачать РЭД 2 через торрент | qTorrent

% Раздел Тема Автор DL S | L
Ultra HD (UHD: 2K, 4K, 8K) [ 21.18 GB ] Суперсемейка 2 / Incredibles 2 [2018 Мультфильм UHD BDRip 2160p] [SDR] DUB [] bober100 Скачать
1 | 0
3D Мультфильмы [ 7.8 GB ] Суперсемейка 2 3Д / Incredibles 2 3D [2018 Мультфильм BDRip 1080p] [Half OverUnder / Вертикальная анаморфная стереопара] DUB [] bober100 Скачать
1 | 0
Иностранные мультфильмы [ 2.32 GB ] Суперсемейка 2 / Incredibles 2 [2018 Мультфильм BDRip-AVC] DUB [] - ExKinoRay Enigma2010 Скачать
2 | 0
Зарубежные Мультфильмы (BDRip 1080p, 720p, Blu-ray, BD-Remux) [ 6.12 GB ] Суперсемейка 2 / Incredibles 2 [2018 Мультфильм BDRip-HEVC 1080p ] DUB [] bober100 Скачать
2 | 0
Ultra HD (UHD: 2K, 4K, 8K) [ 8.45 GB ] Суперсемейка 2 / Incredibles 2 [2018 Мультфильм UHD BDRip 2160p] DUB [] bober100 Скачать
1 | 0
Зарубежные Мультфильмы (BDRip 1080p, 720p, Blu-ray, BD-Remux) [ 24.05 GB ] Суперсемейка 2 / Incredibles 2 [2018 Мультфильм BD Remux 1080p] [2D 3D] DUB [] bober100 Скачать
1 | 0
Зарубежные Мультфильмы (BDRip 1080p, 720p, Blu-ray, BD-Remux) [ 20.13 GB ] Суперсемейка 2 / Incredibles 2 [2018 Мультфильм BD Remux 1080p] DUB [] bober100 Скачать
1 | 0

28-11-2019 20:33  

Отключить всю рекламу на сайте

14-11-2013 11:11 РЭД 2 Скачать торрент  

Бессмысленные обрезки рипов, ИМХОpb.wtf



14-11-2013 11:17 РЭД 2 Скачать торрент  

С таким же успехом помоему в любом плеере можно обрезать. Зачем отдельная раздача.pb.wtf



14-11-2013 13:28 РЭД 2 Скачать торрент  

Тупость обрезать кадр
Получается тогда, что тут далеко не 1920х1080, а меньшее разрешение
И можно с таким же успехом просто зумом увеличить, чтобы заполняло весь экран и всё. Без повреждения самого кадра.pb.wtf



14-11-2013 15:58 РЭД 2 Скачать торрент  

StarJericho писал(а):

С таким же успехом помоему в любом плеере можно обрезать. Зачем отдельная раздача.

ну это для тех ***** кто с компа смотрит, да, можно.
а я смотрю с телека встроенным плеером, там мало что позволяется. Релизер молодец, прикольная задумка!pb.wtf



13-12-2013 13:03 РЭД 2 Скачать торрент  

Varenye писал(а):

StarJericho писал(а):

С таким же успехом помоему в любом плеере можно обрезать. Зачем отдельная раздача.

ну это для тех ***** кто с компа смотрит, да, можно.
а я смотрю с телека встроенным плеером, там мало что позволяется. Релизер молодец, прикольная задумка!

Ну судя по... смотрю с телека встроенным плеером ***** приобрести даже оч. недорогой HD медиаплеер который может изменять размер/соотношение, растягивать, обрезать и прочее и имеет кучу возможностей и фич *****pb.wtf



    Дорогой пользователь! Огромная просьба, поблагодарите релизера, оцените раздачу и оставьте свои комментарий, если Вы скачали РЭД 2 через торрент бесплатно! Внесите свою лепту в развитие PiratBit!
    Комментировать посты могут только пользователи прошедшие не сложную регистрацию
    Показать сообщения:    

    РЭД 2 через торрент
    Скачать бесплатно РЭД 2
    РЭД 2 скачать торрент
    РЭД 2 смотреть онлайн
    Cкачать фильм РЭД 2 бесплатно
    РЭД 2 скачать торрент в хорошем качестве
    РЭД 2 смотреть онлайн бесплатно в хорошем качестве


    Вы не можете начинать темы
    Вы не можете отвечать на сообщения
    Вы не можете редактировать свои сообщения
    Вы не можете удалять свои сообщения
    Вы не можете голосовать в опросах
    Вы не можете прикреплять файлы к сообщениям
    Вы можете скачивать файлы