2 сезон

iTunes

MVO

1

2 сезон

iTunes

iTunes

1 сезон

RePack

30

Ultimate

ВАЖНО

ИГРА 18+

pack

RePack

MK11
pack

Легкие деньги

RePack

jed

RePack

fifa19

RePack

RDR2

RePack

NEED FOR SPEED™ PAYBACK

4 сезон

9 сезон

Бесстыжие 9 сезон

Все сериалы

все сериалы на PB.wtf

RePack

FAR CRY 5

Anonymous, добрый день, мы не успеваем собрать деньги на оплату серверов за декабрь и январь, помогите нам пожалуйста в это трудное время. В качестве благодарности мы отключим Вам всю рекламу на сайте (укажите свой ник в строку Ваше имя)!

×
  
Magnet ссылка

Риддик / Riddick (Дэвид Туи / David Twohy) [2013 г., Фантастика, боевик, триллер, BDRip-AVC, Дубляж ] [iTunes] pb.wtf

Риддик через торрент pb.wtf

Размер: 1.46 GB | Добавлен: 6 лет 11 мес. назад | Торрент скачан:530 раз
Скачать  

23-12-2013 15:48 Риддик Скачать торрент  

Риддик / Riddick
Год выпуска: 2013
Страна: США, Великобритания / One Race Productions, Radar Pictures Inc., White Hare
Жанр: Фантастика, боевик, триллер,
Продолжительность: 01:58:40
Перевод: Дубляж
Субтитры: Русские, английские (Full + SDH-Colored)

Режиссер: Дэвид Туи / David Twohy



В ролях: Вин Дизель, Хорди Молья, Мэтью Нэйбл, Кэти Сакхофф, Дэйв Батиста, Букем Вудбайн, Рауль Трухильо, Конрад Пла, Дэнни Бланко, Карл Урбан,

Описание: Преданный своими и брошенный умирать на пустынной планете, Риддик сражается с хищниками за жизнь и становится сильнее и опаснее себя прежнего. Открывшие на него охоту галактические наемники оказываются пешками в грандиозном плане отмщения. С врагами, возникающими на его пути тогда, когда это нужно самому Риддику, он начинает поход во имя мести, чтобы в конечном счете вернуться на родную Фурию и спасти ее от уничтожения.

Качество: BDRip-AVC
Формат: MKV
Видео кодек: H.264
Аудио кодек: AC3
Видео: 848x354 (2,40:1), 23,976 fps, 1377 Кbps, 0.191 bit/pixel
Аудио#1: 48 kHz, AC3 Dolby Digital, 3/2 (L,C,R,l,r) + LFE ch, 384.00 kbps

Релиз группы:
Автор рипа: potroks





Общее
Уникальный идентификатор : 174257495857925136083822259636178277459 (0x8318C5DEC8D33266AD3B1A8506F85453)
Полное имя : Riddick.2013.THEATRICAL.RUS.BDRip.x264.-HELLYWOOD.mkv
Формат : Matroska
Версия формата : Version 4 / Version 2
Размер файла : 1,46 Гбайт
Продолжительность : 1 ч. 58 м.
Общий поток : 1760 Кбит/сек
Название фильма : HELLYWOOD - rip by potroks
Дата кодирования : UTC 2013-12-23 15:15:07
Программа кодирования : mkvmerge v5.9.0 ('On The Loose') built on Dec 15 2012 16:39:58
Библиотека кодирования : libebml v1.3.0 + libmatroska v1.4.0

Видео
Идентификатор : 1
Формат : AVC
Формат/Информация : Advanced Video Codec
Профиль формата : High@L4.1
Параметр CABAC формата : Да
Параметр ReFrames формата : 12 кадров
Идентификатор кодека : V_MPEG4/ISO/AVC
Продолжительность : 1 ч. 58 м.
Битрейт : 1377 Кбит/сек
Ширина : 848 пикселей
Высота : 354 пикселя
Соотношение сторон : 2,40:1
Режим частоты кадров : Постоянный
Частота кадров : 23,976 кадра/сек
Цветовое пространство : YUV
Субдискретизация насыщенности : 4:2:0
Битовая глубина : 8 бит
Тип развёртки : Прогрессивная
Бит/(Пиксели*Кадры) : 0.191
Размер потока : 1,11 Гбайт (76%)
Заголовок : Riddik
Библиотека кодирования : x264 core 130 r2273 b3065e6
Настройки программы : cabac=1 / ref=12 / deblock=1:-3:-3 / analyse=0x3:0x133 / me=umh / subme=11 / psy=1 / psy_rd=1.09:0.00 / mixed_ref=1 / me_range=48 / chroma_me=1 / trellis=2 / 8x8dct=1 / cqm=0 / deadzone=21,11 / fast_pskip=0 / chroma_qp_offset=-2 / threads=9 / lookahead_threads=5 / sliced_threads=0 / nr=0 / decimate=0 / interlaced=0 / bluray_compat=0 / constrained_intra=0 / bframes=13 / b_pyramid=2 / b_adapt=2 / b_bias=0 / direct=3 / weightb=1 / open_gop=0 / weightp=2 / keyint=250 / keyint_min=23 / scenecut=40 / intra_refresh=0 / rc_lookahead=60 / rc=2pass / mbtree=1 / bitrate=1377 / ratetol=1.0 / qcomp=0.70 / qpmin=0 / qpmax=69 / qpstep=4 / cplxblur=20.0 / qblur=0.5 / vbv_maxrate=20000 / vbv_bufsize=20000 / nal_hrd=none / ip_ratio=1.35 / aq=1:0.80
Язык : English
Default : Да
Forced : Нет

Аудио
Идентификатор : 2
Формат : AC-3
Формат/Информация : Audio Coding 3
Расширение режима : CM (complete main)
Параметр Endianness формата : Big
Идентификатор кодека : A_AC3
Продолжительность : 1 ч. 58 м.
Вид битрейта : Постоянный
Битрейт : 384 Кбит/сек
Каналы : 6 каналов
Расположение каналов : Front: L C R, Side: L R, LFE
Частота : 48,0 КГц
Битовая глубина : 16 бит
Метод сжатия : С потерями
Размер потока : 326 Мбайт (22%)
Заголовок : Dub | DD 5.1 @ 384 kbps - iTunes
Язык : Russian
Default : Да
Forced : Да

Текст #1
Идентификатор : 3
Формат : UTF-8
Идентификатор кодека : S_TEXT/UTF8
Идентификатор кодека/Информация : UTF-8 Plain Text
Язык : Russian
Default : Нет
Forced : Нет

Текст #2
Идентификатор : 4
Формат : UTF-8
Идентификатор кодека : S_TEXT/UTF8
Идентификатор кодека/Информация : UTF-8 Plain Text
Заголовок : SDH-Colored
Язык : English
Default : Нет
Forced : Нет

Текст #3
Идентификатор : 5
Формат : UTF-8
Идентификатор кодека : S_TEXT/UTF8
Идентификатор кодека/Информация : UTF-8 Plain Text
Заголовок : Fuul
Язык : English
Default : Нет
Forced : Нет

Меню
00:00:00.000 : en:(01)00:00:00:000
00:08:22.668 : en:(02)00:08:22:668
00:19:44.599 : en:(03)00:19:44:599
00:30:00.798 : en:(04)00:30:00:798
00:42:49.315 : en:(05)00:42:49:315
00:51:07.814 : en:(06)00:51:07:814
01:03:07.950 : en:(07)01:03:07:950
01:11:46.844 : en:(08)01:11:46:844
01:21:01.856 : en:(09)01:21:01:856
01:33:41.323 : en:(10)01:33:41:323
01:44:40.774 : en:(11)01:44:40:774
01:54:50.925 : en:(12)01:54:50:925
01:58:39.821 : en:(13)01:58:39:821

pb.wtf



Скачать Риддик через торрент http://i59.fastpic.ru/big/2013/1223/8a/3746140d325dc7e7b086c3c648de8f8a.jpg Скачать фильм Риддик через торрент бесплантно в хорошем качестве Описание: Преданный своими и брошенный умирать на пустынной планете, Риддик сражается с хищниками за жизнь и становится сильнее и опаснее ... 9.6 10 34
Info! Золотая раздача, скачанное не засчитывается.
Торрент: Зарегистрирован [2014-02-12 19:40] · скачан: 530 раз
Статус: √ проверено
Размер: 1.46 GB
Как cкачать? Как скачать Риддик через торрент | UTorrent

% Раздел Тема Автор DL S | L
Сборники (HD Video) [ 44.55 GB ] Риддик: Трилогия / Riddick: Trilogy [2000-2013 BDRip 1080p] DUB+MVO+DVO+AVO bober100 Скачать
1 | 0
Фильмы (WEB-DL 720p, 1080p) [ 8.67 GB ] Хроники Риддика / The Chronicles of Riddick [2004 WEB-DL 1080p ] DUB [Мосфильм-Мастер] bober100 Скачать
1 | 0
Фильмы 2001-2005 [ 2.05 GB ] Хроники Риддика / The Chronicles of Riddick [2004 . HDRip-AVC Полное Дублирование ] akcent Скачать
1 | 0
Фильмы 2001-2005 [ 2.05 GB ] Хроники Риддика / The Chronicles of Riddick [2004 DVDRip] Anonymous Скачать
1 | 0
Фильмы (Blu-ray, BD-Remux, HDDVD) [ 39.36 GB ] Риддик / Riddick [2013 BDRemux 1080p] DUB + 3xAVO [Расширенная Версия] sheker187 Скачать
1 | 0
Сборники и Сиквелы (48-60 fps) [ 20.08 GB ] Риддик / Riddick [Дэвид Туи / David Twohy BDRip 720p / 60 FPS / Director's Cut / Трилогия] KEYS Скачать
1 | 0
Сборники и Сиквелы (48-60 fps) [ 28.82 GB ] Риддик / Riddick [Трилогия] [1999 2004 2013 BDRip 1080p DUB] 60fps [Director's Cut] Ворон Скачать
4 | 0

28-11-2019 20:33  

Отключить всю рекламу на сайте

23-12-2013 15:55 Риддик Скачать торрент  

а почему временная?pb.wtf



23-12-2013 17:41 Риддик Скачать торрент  

potroks
звук с WEB-DL, источник видео - очень сомнительный BRA блюрик с настройками кодирования в MediaInfo.
Но в главной степени из-за звука.pb.wtf



23-12-2013 19:09 Риддик Скачать торрент  

Messa-fan
давно ли iTunes стал у вас в опалеpb.wtf



24-12-2013 15:13 Риддик Скачать торрент  

прикольный фильм.. 5-тая часть получается уже )))) для ценителей короче.pb.wtf



25-12-2013 10:25 Риддик Скачать торрент  

Для просмотра на один раз . Лично мне понравился , как и прошлые серии .pb.wtf



06-01-2014 07:28 Риддик Скачать торрент  

спасибо за фильмpb.wtf



    Дорогой пользователь! Огромная просьба, поблагодарите релизера, оцените раздачу и оставьте свои комментарий, если Вы скачали Риддик через торрент бесплатно! Внесите свою лепту в развитие PiratBit!
    Комментировать посты могут только пользователи прошедшие не сложную регистрацию
    Показать сообщения:    

    Риддик через торрент
    Скачать бесплатно Риддик
    Риддик скачать торрент
    Риддик смотреть онлайн
    Cкачать фильм Риддик бесплатно
    Риддик скачать торрент в хорошем качестве
    Риддик смотреть онлайн бесплатно в хорошем качестве


    Вы не можете начинать темы
    Вы не можете отвечать на сообщения
    Вы не можете редактировать свои сообщения
    Вы не можете удалять свои сообщения
    Вы не можете голосовать в опросах
    Вы не можете прикреплять файлы к сообщениям
    Вы можете скачивать файлы